вход на сайт

Имя пользователя :
Пароль :

Восстановление пароля Регистрация
Шерлок Холмс: Игра теней / Sherlock Holmes: A Game of Shadows (Гай Ричи, боевик, 2011) [BDRip-AVC, Дубляж + Субтитры]
Рейтинг:
(голосов: 1)



[img]{THEME}/images/logopost.png[/img]



• Шерлок Холмс: Игра теней / Sherlock Holmes: A Game of Shadows •
♥ Год выпуска: 2011
♥ Страна: США
♥ Производство: Warner Bros. Pictures
♥ Жанр: Боевик, триллер, криминал, детектив, приключения

♥ Режиссёр: Гай Ричи
♥ В ролях: Роберт Дауни мл., Джуд Лоу, Нуми Рапас, Рэйчел МакАдамс, Джаред Харрис, Стивен Фрай, Пол Андерсон, Келли Райлли, Джеральдин Джеймс, Эдди Марсан.

♥ Перевод: Дублированный [лицензия]
♥ Субтитры: Русские, Английские

♥ Описание: 1891 год. В Вене и Страсбурге проходит серия терактов, организованных анархистами или националистами, а по всей Европе происходят таинственные убийства. Шерлок Холмс считает, что за всем этим стоит профессор Джеймс Мориарти - математический гений, автор знаменитых лекций и трудов.



♥ Качество: BDRip-AVC
♥ Продолжительность: 02:08:44

♥ Формат: MKV
♥ Видео кодек: x264
♥ Аудио кодек: AC3
♥ Видео: 1056x440 (2.40:1), 23.976 fps, AVC, ~1929 Kbps, 0.173 bits/pixel
♥ Аудио: 48 kHz, AC3 Dolby Digital, 3/2 (L,C,R,l,r) + LFE ch, 448 kbps avg
MediaInfo: ▼TextGeneral
Unique ID : 170475014240201555129276296360723293360 (0x80404B20D14409C28085153EE8E924B0)
Complete name : I:...Sherlok.Holms.Igra.Tenei.2011.RUS.BDRip-AVC.AC3.-HQ-ViDEOSherlok.Holms.Igra.Tenei.2011.RUS.BDRip-AVC.AC3.-HQ-ViDEO.mkv
Format : Matroska
Format version : Version 2
File size : 2.18 GiB
Duration : 2h 8mn
Overall bit rate : 2 425 Kbps
Movie name : Sherlock Holmes: A Game of Shadows (2011) - HQ-ViDEO
Encoded date : UTC 2012-04-23 17:32:31
Writing application : mkvmerge v5.5.0 (Healer) built on Apr 6 2012 21:43:24
Writing library : libebml v1.2.3 + libmatroska v1.3.0
Video
ID : 1
Format : AVC
Format/Info : Advanced Video Codec
Format profile : [email protected]
Format settings, CABAC : Yes
Format settings, ReFrames : 16 frames
Codec ID : V_MPEG4/ISO/AVC
Duration : 2h 8mn
Bit rate : 1 929 Kbps
Width : 1 056 pixels
Height : 440 pixels
Display aspect ratio : 2.40:1
Frame rate : 23.976 fps
Color space : YUV
Chroma subsampling : 4:2:0
Bit depth : 8 bits
Scan type : Progressive
Bits/(Pixel*Frame) : 0.173
Stream size : 1.73 GiB (80%)
Title : Vaippp
Writing library : x264 core 122 r2184 5c85e0a
Encoding settings : cabac=1 / ref=16 / deblock=1:-2:-1 / analyse=0x3:0x133 / me=umh / subme=10 / psy=1 / psy_rd=1.00:0.05 / mixed_ref=1 / me_range=48 / chroma_me=1 / trellis=2 / 8x8dct=1 / cqm=0 / deadzone=21,11 / fast_pskip=1 / chroma_qp_offset=-3 / threads=12 / sliced_threads=0 / nr=0 / decimate=1 / interlaced=0 / bluray_compat=0 / constrained_intra=0 / bframes=13 / b_pyramid=2 / b_adapt=2 / b_bias=0 / direct=1 / weightb=1 / open_gop=0 / weightp=2 / keyint=240 / keyint_min=22 / scenecut=40 / intra_refresh=0 / rc_lookahead=60 / rc=crf / mbtree=0 / crf=19.3 / qcomp=0.70 / qpmin=0 / qpmax=69 / qpstep=4 / vbv_maxrate=40000 / vbv_bufsize=30000 / crf_max=0.0 / nal_hrd=none / ip_ratio=1.40 / pb_ratio=1.20 / aq=1:0.90
Language : English
Default : Yes
Forced : No
Color primaries : BT.709-5, BT.1361, IEC 61966-2-4, SMPTE RP177
Transfer characteristics : BT.709-5, BT.1361
Matrix coefficients : BT.709-5, BT.1361, IEC 61966-2-4 709, SMPTE RP177
Audio
ID : 2
Format : AC-3
Format/Info : Audio Coding 3
Mode extension : CM (complete main)
Format settings, Endianness : Big
Codec ID : A_AC3
Duration : 2h 8mn
Bit rate mode : Constant
Bit rate : 448 Kbps
Channel(s) : 6 channels
Channel positions : Front: L C R, Side: L R, LFE
Sampling rate : 48.0 KHz
Bit depth : 16 bits
Compression mode : Lossy
Stream size : 413 MiB (18%)
Title : DUB @ BD-CEE
Language : Russian
Default : Yes
Forced : Yes
Text #1
ID : 3
Format : UTF-8
Codec ID : S_TEXT/UTF8
Codec ID/Info : UTF-8 Plain Text
Title : voronine
Language : Russian
Default : No
Forced : No
Text #2
ID : 4
Format : UTF-8
Codec ID : S_TEXT/UTF8
Codec ID/Info : UTF-8 Plain Text
Language : English
Default : No
Forced : No
Menu
00:00:00.000 : en:00:00:00.000
00:09:18.266 : en:00:09:18.266
00:19:37.635 : en:00:19:37.635
00:30:46.845 : en:00:30:46.845
00:40:13.703 : en:00:40:
63d0b575872854129f5a5d187142473a624abd04Шерлок Холмс: Игра теней / Sherlock Holmes: A Game of Shadows (Гай Ричи, боевик, 2011) [BDRip-AVC, Дубляж + Субтитры] Шерлок Холмс: Игра теней / Sherlock Holmes: A Game of Shadows (Гай Ричи, боевик, 2011) [BDRip-AVC, Дубляж + Субтитры] " />

Аплоадер: Админ, дата: 24-04-2012, 00:34, торрент скачан: 359 раз

Понравилась раздача? Посмотрите эти:
  • Шерлок Холмс: Игра теней / Sherlock Holmes: A Game of Shadows (Гай Ричи, Бо ...
  • Шерлок Холмс: Игра теней / Sherlock Holmes: A Game of Shadows (Гай Ричи, Бо ...
  • Шерлок Холмс: Игра теней / Sherlock Holmes: A Game of Shadows (Гай Ричи, Бо ...
  • Шерлок Холмс: Игра теней / Sherlock Holmes: A Game of Shadows (Гай Ричи, бо ...
  • Шерлок Холмс: Игра теней / Sherlock Holmes: A Game of Shadows (Гай Ричи, бо ...
  • Шерлок Холмс: Игра теней / Sherlock Holmes: A Game of Shadows (Гай Ричи, Бо ...
  • Шерлок Холмс: Игра теней / Sherlock Holmes: A Game of Shadows (Гай Ричи, Бо ...
  • Шерлок Холмс: Игра теней / Sherlock Holmes: A Game of Shadows (Гай Ричи, Бо ...
  • Шерлок Холмс: Игра теней / Sherlock Holmes: A Game of Shadows (Гай Ричи, Бо ...
  • Шерлок Холмс: Игра теней / Sherlock Holmes: A Game of Shadows (Гай Ричи, бо ...
  • Шерлок Холмс: Игра теней / Sherlock Holmes: A Game of Shadows (Гай Ричи, бо ...
  • Шерлок Холмс: Игра теней / Sherlock Holmes: A Game of Shadows (Гай Ричи, Бо ...
  • Шерлок Холмс: Игра теней / Sherlock Holmes: A Game of Shadows (Гай Ричи, Бо ...
  • Шерлок Холмс: Игра теней / Sherlock Holmes: A Game of Shadows (Гай Ричи, Бо ...
  • [ENG] Шерлок Холмс: Игра теней / Sherlock Holmes 2: A Game of Shadows (2011 ...
  • Шерлок Холмс: Игра теней / Sherlock Holmes: A Game of Shadows (Гай Ричи, Бо ...
  • Шерлок Холмс: Игра теней / Sherlock Holmes: A Game of Shadows (Гай Ричи, Бо ...
  • Шерлок Холмс: Игра теней / Sherlock Holmes: A Game of Shadows (Гай Ричи, Бо ...
  • Шерлок Холмс: Игра теней / Sherlock Holmes: A Game of Shadows (Гай Ричи, Бо ...
  • Шерлок Холмс: Игра теней / Sherlock Holmes: A Game of Shadows (Гай Ричи, Бо ...
  • Информация
    Посетители, находящиеся в группе Гости, не могут оставлять комментарии к данной публикации.