вход на сайт

Имя пользователя :
Пароль :

Восстановление пароля Регистрация
Нокаут / Haywire (Стивен Содерберг, боевик, триллер, 2011) [BDRip-AVC, Дублированный + Оригинал + Sub]
Рейтинг:
(голосов: 1)



[img]{THEME}/images/logopost.png[/img]



Нокаут / Haywire
«Ей не оставили выбора»

Год выпуска: 2011
Страна: США Ирландия
Производство: Relativity Media
Жанр: драма, военный, история

Режиссёр: Стивен Содерберг
В ролях: Джина Карано, Юэн МакГрегор, Майкл Дуглас,Антонио Бандерас, Ченнинг Татум, Матьё Кассовиц, Майкл Фассбендер, Майкл Ангарано,Дебби Линн Росс, Джулиан Алькараз

Перевод: Дублированный + Оригинал
Субтитры: Английские

Описание: Мэллори Кейн — секретный спецагент. Она молода, умна и красива. Время от времени шеф международной спецслужбы Кеннет вызывает ее для выполнения заданий, не всегда санкционированных правительством. Но после провала череды операций Мэллори осознает, что она пешка в двойной игре. Теперь ей нужно использовать весь свой талант и опыт, чтобы скрыться от международного розыска, защитить свою семью и отомстить за предательство…
"Знаете ли вы, что..." ▼Роль, в итоге сыгранная Биллом Пэкстоном, изначально была предложена Деннису Куэйду, но ему пришлось отказаться из-за занятости на других проектах.


Качество: BDRip-AVC |Рип с Nokaut.2011.MPEG-4-AVC.BluRay-Remux(1080p)|
Продолжительность: 01:32:39 час.

Формат: MKV
Видео кодек: AVC
Аудио кодек: AC3
Видео: 1200x500 (2.40:1), 23.976 fps, AVC, ~1473 Kbps, 0.102 bits/pixel
Аудио: 48.0 KHz, AC3, 6 ch, 384 kbps | Russian (DUB)
Аудио: 48.0 KHz, AC3, 6 ch, 384 kbps | English

Премьера (мир): 7 ноября 2011
Премьера (РФ): 19 января 2012, «Парадиз»
Mediainfo ▼General
Unique ID : 212180325198443045414796902412044499728 (0x9FA071B67F84BB4D800FC1D2A7687B10)
Complete name : Nokaut.chopper887.mkv
Format : Matroska
Format version : Version 2
File size : 1.45 GiB
Duration : 1h 32mn
Overall bit rate : 2 241 Kbps
Encoded date : UTC 2012-04-21 18:25:41
Writing application : mkvmerge v4.8.0 (I Got The...) сборка от May 24 2011 03:12:58
Writing library : libebml v1.2.0 + libmatroska v1.1.0
Video
ID : 1
Format : AVC
Format/Info : Advanced Video Codec
Format profile : [email protected]
Format settings, CABAC : Yes
Format settings, ReFrames : 10 frames
Codec ID : V_MPEG4/ISO/AVC
Duration : 1h 32mn
Bit rate : 1 473 Kbps
Width : 1 200 pixels
Height : 500 pixels
Display aspect ratio : 2.40:1
Frame rate : 23.976 fps
Color space : YUV
Chroma subsampling : 4:2:0
Bit depth : 8 bits
Scan type : Progressive
Bits/(Pixel*Frame) : 0.102
Stream size : 949 MiB (64%)
Title : Nokaut.chopper887
Writing library : x264 core 120 r2164 da19765
Encoding settings : cabac=1 / ref=10 / deblock=1:-2:-1 / analyse=0x3:0x133 / me=umh / subme=11 / psy=1 / psy_rd=1.00:0.10 / mixed_ref=1 / me_range=32 / chroma_me=1 / trellis=2 / 8x8dct=1 / cqm=0 / deadzone=21,11 / fast_pskip=0 / chroma_qp_offset=-3 / threads=12 / sliced_threads=0 / nr=0 / decimate=1 / interlaced=0 / bluray_compat=0 / constrained_intra=0 / bframes=10 / b_pyramid=2 / b_adapt=2 / b_bias=0 / direct=3 / weightb=1 / open_gop=0 / weightp=2 / keyint=240 / keyint_min=23 / scenecut=40 / intra_refresh=0 / rc_lookahead=80 / rc=2pass / mbtree=1 / bitrate=1473 / ratetol=1.0 / qcomp=0.60 / qpmin=10 / qpmax=51 / qpstep=4 / cplxblur=20.0 / qblur=0.5 / ip_ratio=1.40 / aq=1:1.00
Language : English
Default : Yes
Forced : No
Audio #1
ID : 2
Format : AC-3
Format/Info : Audio Coding 3
Mode extension : CM (complete main)
Codec ID : A_AC3
Duration : 1h 32mn
Bit rate mode : Constant
Bit rate : 384 Kbps
Channel(s) : 6 channels
Channel positions : Front: L C R, Side: L R, LFE
Sampling rate : 48.0 KHz
Bit depth : 16 bits
Compression mode : Lossy
Stream size : 255 MiB (17%)
Title : Rus
Default : Yes
Forced : No
Audio #2
ID : 3
Format : AC-3
Format/Info : Audio Coding 3
Mode extension : CM (complete main)
Codec ID : A_AC3
Duration : 1h 32mn
Bit rate mode : Constant
Bit rate : 384 Kbps
Channel(s) : 6 channels
Channel positions : Front: L C R, Side: L R, LFE
Sampling rate : 48.0 KHz
Bit depth : 16 bits
Compression mode : Lossy
Stream size : 255 MiB (17%)
Title : Eng
Default : No
Forced : No
Text
ID : 4
Format : UTF-8
Codec ID : S_TEXT/UTF8
Codec ID/
87eed823bca01dfc1c699e460cfffaf7cbe0b134Нокаут / Haywire (Стивен Содерберг, боевик, триллер, 2011) [BDRip-AVC, Дублированный + Оригинал + Sub] Нокаут / Haywire (Стивен Содерберг, боевик, триллер, 2011) [BDRip-AVC, Дублированный + Оригинал + Sub] " />

Аплоадер: Админ, дата: 22-04-2012, 05:46, торрент скачан: 359 раз

Понравилась раздача? Посмотрите эти:
  • Пастырь / Priest (Скотт Чарльз Стюарт, ужасы, фантастика, боевик, триллер, ...
  • Хроника / Chronicle (Джошуа Транк, фантастика, боевик, триллер, драма, 2012 ...
  • Погоня / Abduction (Джон Синглтон, боевик, триллер, драма, детектив, 2011) ...
  • Убить по расписанию / Ticking Clock (Эрни Барбараш, фантастика, боевик, три ...
  • Голодный кролик атакует / Seeking Justice (Роджер Дональдсон / Roger Donald ...
  • Похищенная / A Lonely Place to Die (Джулиан Джилби, триллер, криминал, прик ...
  • Нокаут / Haywire (Стивен Содерберг, боевик, триллер, 2011) [BDRip-AVC, Проф ...
  • Бедная богатая девочка / Young Adult (Джейсон Райтман, драма, комедия, 2011 ...
  • Нокаут / Haywire (Стивен Содерберг, боевик, триллер, 2011) [HDRip-AVC, Проф ...
  • Исходный код / Source Code (Дункан Джонс, фантастика, боевик, триллер, 2011 ...
  • Профессионал / Killer Elite (Гэри МакКендри, Боевик, Триллер, Криминал, 201 ...
  • Супер Майк / Magic Mike (Стивен Содерберг, Драма, комедия, 2012) [BDRip 720 ...
  • Супер Майк / Magic Mike (Стивен Содерберг, Драма, комедия, 2012) [BDRip 108 ...
  • Mylene Farmer / Du Temps [2011, Pop, HDTVRip]
  • Mylene Farmer / Bleu Noir [2011, Pop, HDTVRip]
  • Нокаут / Haywire (Стивен Содерберг, боевик, триллер, 2011) [DVD9, Профессио ...
  • Нокаут / Haywire (Стивен Содерберг, боевик, триллер, 2011г) [320x240] [DVDR ...
  • Нокаут / Haywire (Стивен Содерберг, боевик, триллер, 2011) [HDRip, Дублиров ...
  • Нокаут / Haywire (Стивен Содерберг, боевик, триллер, 2011) [Blu-ray Disc [R ...
  • Нокаут / Haywire (Стивен Содерберг, боевик, триллер, 2011) [BDRip, Професси ...
  • Информация
    Посетители, находящиеся в группе Гости, не могут оставлять комментарии к данной публикации.