вход на сайт

Имя пользователя :
Пароль :

Восстановление пароля Регистрация
День Д (Михаил Пореченков, Екатерина Побединская, боевик, приключения, 2008) [BDRip-AVC, Не требуется]
Рейтинг:
(голосов: 1)



[img]{THEME}/images/logopost.png[/img]



День Д

Год выпуска: 2008
Страна: Россия
Производство: ВВП Альянс
Жанр: боевик, приключения

Режиссёр: Михаил Пореченков, Екатерина Побединская
В ролях: Михаил Пореченков, Александра Урсуляк, Михаил Трухин, Виктор Вержбицкий, Варвара Пореченкова, Максим Дрозд, Боб Шрайбер, Константин Исаев, Сергей Сосновский, Сергей Блудов

Перевод: Не требуется
Субтитры: Отсутствуют

Описание: Майор ВДВ в отставке — Иван — живет в глухом лесу вместе с маленькой дочерью Женей. Однажды на его дом совершается налет, во время которого Женю похищают. От Ивана в обмен на жизнь дочери требуют убить эстонского президента.

Герой соглашается, но по дороге в Таллинн сбегает, встречает красавицу-стюардессу Алию. Вместе они захватывают гидроплан и отправляются на остров рядом с Владивостоком, где злодеи держат Женю.
"Знаете ли вы, что..." ▼Ради своего режиссерского и продюсерского дебюта Михаил Пореченков отказался от роли в фильме «Обитаемый остров».

Студия, владеющая правами на «Коммандо» отказалась брать деньги у создателей ремейка (мотивируя это тем, что похожая сюжетная линия не нуждается в купле-продаже).

На момент съемок «Коммандо» вес Арнольда Шварценеггера - 102 кг, Пореченкова в «Дне Д» - 109 кг.


Качество: BDRip-AVC
Продолжительность: 01:24:26 час.

Формат: MKV
Видео кодек: AVC
Аудио кодек: AC3 Dolby Digital
Видео: 1136x492 (2.35:1), 23.976 fps, AVC ~4 490 kbps avg, 0.335 bit/pixel
Аудио: 48 kHz, AC3 Dolby Digital, 3/2 (L,C,R,l,r) LFE ch, ~448 kbps

Премьера (РФ): 4 сентября 2008, «Централ Партнершип»
Mediainfo ▼General
Unique ID : 215377088019749975019803710101824630710 (0xA2081E49E7F0248387EC4679E6726FB6)
Complete name : F:FILMSДень Д.mkv
Format : Matroska
File size : 2.91 GiB
Duration : 1h 24mn
Overall bit rate : 4 937 Kbps
Encoded date : UTC 2011-07-23 14:32:48
Writing application : mkvmerge v3.3.0 (Language) строится на Apr 12 2010 10:07:49
Writing library : libebml v0.8.0 + libmatroska v0.9.0
Video
ID : 1
Format : AVC
Format/Info : Advanced Video Codec
Format profile : [email protected]
Format settings, CABAC : Yes
Format settings, ReFrames : 14 frames
Format settings, GOP : M=1, N=6
Codec ID : V_MPEG4/ISO/AVC
Duration : 1h 24mn
Bit rate : 4 490 Kbps
Width : 1 136 pixels
Height : 492 pixels
Display aspect ratio : 2.35:1
Frame rate : 23.976 fps
Color space : YUV
Chroma subsampling : 4:2:0
Bit depth : 8 bits
Scan type : Progressive
Bits/(Pixel*Frame) : 0.335
Stream size : 2.59 GiB (89%)
Title : AVC [email protected] fps 4490 kBit/s 2-pass High 4.1 0.335
Writing library : x264 core 115 r2008bm 4c552d8
Encoding settings : cabac=1 / ref=14 / deblock=1:-2:-3 / analyse=0x3:0x133 / me=umh / subme=10 / psy=1 / psy_rd=1.00:0.15 / mixed_ref=1 / me_range=24 / chroma_me=1 / trellis=2 / 8x8dct=1 / cqm=1 / deadzone=21,11 / fast_pskip=1 / chroma_qp_offset=-3 / threads=6 / sliced_threads=0 / nr=0 / decimate=1 / interlaced=0 / bluray_compat=0 / constrained_intra=0 / bframes=8 / b_pyramid=2 / b_adapt=2 / b_bias=0 / direct=3 / weightb=1 / open_gop=0 / weightp=2 / keyint=250 / keyint_min=23 / scenecut=40 / intra_refresh=0 / rc_lookahead=60 / rc=2pass / mbtree=1 / bitrate=4490 / ratetol=1.0 / qcomp=0.60 / qpmin=4 / qpmax=69 / qpstep=4 / cplxblur=20.0 / qblur=0.5 / ip_ratio=1.40 / aq=1:1.00
Language : Russian
Audio
ID : 2
Format : AC-3
Format/Info : Audio Coding 3
Mode extension : CM (complete main)
Codec ID : A_AC3
Duration : 1h 24mn
Bit rate mode : Constant
Bit rate : 448 Kbps
Channel(s) : 6 channels
Channel positions : Front: L C R, Side: L R, LFE
Sampling rate : 48.0 KHz
Bit depth : 16 bits
Compression mode : Lossy
Stream size : 271 MiB (9%)
Title : AC3 448 kHz 5.1 DD 48 kHz
Language : Russian


12387415a4aac67158e8765f802df4d043dcdbc5День Д (Михаил Пореченков, Екатерина Побединская, боевик, приключения, 2008) [BDRip-AVC, Не требуется] День Д (Михаил Пореченков, Екатерина Побединская, боевик, приключения, 2008) [BDRip-AVC, Не требуется] " />

Аплоадер: Админ, дата: 20-04-2012, 05:34, торрент скачан: 359 раз

Понравилась раздача? Посмотрите эти:
  • FLO / NRG [2012, Pop, Dance, MasterRip]
  • UFC - Best Of 2012 Year In Review[MMA,2013, BDRip 540p]
  • О чём молчат девушки (Карен Оганесян, Комедия, 2013) [BDRip-AVC, Не требует ...
  • Напряги Извилины / Get Smart (Питер Сигал, Комедия, боевик, приключения ...
  • Билет на Vegas (Гор Киракосян, комедия, приключения, 2012) [BDRip-AVC, Не т ...
  • Убить по расписанию / Ticking Clock (Эрни Барбараш, фантастика, боевик, три ...
  • Мой парень - ангел (Вера Сторожева, фэнтези, мелодрама, комедия, приключени ...
  • Голодный кролик атакует / Seeking Justice (Роджер Дональдсон, боевик, 2011) ...
  • Голодный кролик атакует / Seeking Justice (Роджер Дональдсон / Roger Donald ...
  • Хранитель времени / Hugo (Мартин Скорсезе, Драма, 2011) [BDRip-AVC, Професс ...
  • Запрещенная реальность (Константин Максимов, фантастика, боевик, 2009) [BDR ...
  • Москва, я люблю тебя! (Иван Охлобыстин, Екатерина Двигубская, Комедия, мело ...
  • Робин Гуд [Режиссёрская версия] / Robin Hood [Directors Cut] (Ридли Скотт / ...
  • Центурион / Centurion (Нил Маршалл / Neil Marshall, Боевик, триллер, драма, ...
  • Закон доблести / Act of Valor (Майк МакКой, Скотт Во, боевик, триллер, прик ...
  • Джунгли (Александр Войтинский, Мелодрама, комедия, приключения, 2012) [BDRi ...
  • Кунг-фу Панда 2 / Kung Fu Panda 2 (Дженнифер Ю, мультфильм, боевик, комеди ...
  • День Д (Михаил Пореченков, боевик, приключения, 2008) [DVD9, Не требуется]
  • Исходный код / Source Code (Дункан Джонс, фантастика, боевик, триллер, 2011 ...
  • «Весёлые» каникулы / Get the Gringo (Адриан Грюнберг, Боевик, комедия, 2012 ...
  • Сказка. Есть (Елизавета Соломина, Константин Статский, Александр Баршак, Фэ ...
  • Mylene Farmer / Du Temps [2011, Pop, HDTVRip]
  • Mylene Farmer / Bleu Noir [2011, Pop, HDTVRip]
  • День Д (Михаил Пореченков) [2008, Боевик, приключения, DVDRiP]
  • День Д (Михаил Пореченков, Боевик, Приключения, 2008) [HDRip, не требуется ...
  • Информация
    Посетители, находящиеся в группе Гости, не могут оставлять комментарии к данной публикации.