вход на сайт

Имя пользователя :
Пароль :

Восстановление пароля Регистрация
Джона Хекс / Jonah Hex (Джимми Хейуорд, боевик, триллер, драма, вестерн, 2010) [BDRip-AVC, Профессиональный (многоголосый, закадровый) + Оригинал + Sub]
Рейтинг:
(голосов: 1)



[img]{THEME}/images/logopost.png[/img]



Джона Хекс / Jonah Hex
«Revenge Gets Ugly»

Год выпуска: 2010
Страна: США
Производство: Warner Bros. Pictures / Legendary Pictures / Mad Chance / Weed Road
Жанр: фэнтези, боевик, триллер, драма, вестерн

Режиссёр: Джимми Хейуорд
В ролях: Джош Бролин, Джон Малкович, Меган Фокс, Майкл Фассбендер, Уилл Арнетт, Джон Галлахир мл., Том Вопат, Майкл Шеннон, Уэс Бентли, Джулия Джонс

Перевод: Профессиональный (многоголосый, закадровый) + Оригинал
Субтитры: Русские, английские

Описание: Конец XIX века. Джона Хекс — странник и наемный убийца, последний, к кому обращаются, чтобы поймать кого-то из людей или нечто нечеловеческое… Сторонясь людей, герой, тем не менее, поддерживает связь с Лейлой, работницей борделя. По заданию военных он должен будет выследить и поймать Квентина Тернбалла…
"Знаете ли вы, что..." ▼Эмиль Хирш рассматривался на главную роль.

Мэттью МакКонахи мог исполнить одну из ролей.

На главную роль также рассматривался Томас Джейн."Награды и премии" ▼Золотая малина, 2011 год
Номинации (2):
* Худшая женская роль (Меган Фокс)
* Худшая экранная пара — «лицо Джоша Бролина и акцент Меган Фокс»



Качество: BDRip-AVC(Исх. BDRemux)
Продолжительность: 01:21:28 час.

Формат: MKV
Видео кодек: AVC
Аудио кодек: AC3 Dolby Digital
Видео: 1024x432 (2.35:1), 23.976 fps, AVC ~1 736 kbps avg, 0.164 bit/pixel
Аудио: 48 kHz, AC3 Dolby Digital, 3/2 (L,C,R,l,r) + LFE ch, ~384 kbps| Russian (MVO)
Аудио: 48 kHz, AC3 Dolby Digital, 3/2 (L,C,R,l,r) + LFE ch, ~384 kbps| English

Премьера (мир): 17 июня 2010
Mediainfo ▼General
Complete name : J:Dzhona.Heks.сhopper887.mkv
Format : Matroska
File size : 1.45 GiB
Duration : 1h 21mn
Overall bit rate : 2 555 Kbps
Movie name : Dzhona.Heks.сhopper887
Encoded date : UTC 2010-10-18 14:50:23
Writing application : mkvmerge v3.0.0 (Hang up your Hang-Ups) built on Dec 12 2009 15:20:35
Writing library : libebml v0.7.9 + libmatroska v0.8.1
Video
ID : 1
Format : AVC
Format/Info : Advanced Video Codec
Format profile : [email protected]
Format settings, CABAC : Yes
Format settings, ReFrames : 10 frames
Muxing mode : Container [email protected]
Codec ID : V_MPEG4/ISO/AVC
Duration : 1h 21mn
Bit rate : 1 736 Kbps
Nominal bit rate : 1 787 Kbps
Width : 1 024 pixels
Height : 432 pixels
Display aspect ratio : 2.35:1
Frame rate : 23.976 fps
Resolution : 24 bits
Colorimetry : 4:2:0
Scan type : Progressive
Bits/(Pixel*Frame) : 0.164
Stream size : 1 011 MiB (68%)
Title : Dzhona.Heks.сhopper887
Writing library : x264 core 104 r1713 c276662
Encoding settings : cabac=1 / ref=10 / deblock=1:-2:-1 / analyse=0x3:0x133 / me=umh / subme=9 / psy=1 / psy_rd=1.00:0.10 / mixed_ref=1 / me_range=32 / chroma_me=1 / trellis=2 / 8x8dct=1 / cqm=0 / deadzone=21,11 / fast_pskip=0 / chroma_qp_offset=-3 / threads=3 / sliced_threads=0 / nr=0 / decimate=1 / interlaced=0 / constrained_intra=0 / bframes=8 / b_pyramid=2 / b_adapt=2 / b_bias=0 / direct=3 / weightb=1 / open_gop=0 / weightp=2 / keyint=250 / keyint_min=23 / scenecut=40 / intra_refresh=0 / rc_lookahead=80 / rc=2pass / mbtree=1 / bitrate=1787 / ratetol=1.0 / qcomp=0.60 / qpmin=10 / qpmax=51 / qpstep=4 / cplxblur=20.0 / qblur=0.5 / ip_ratio=1.40 / aq=1:1.00
Language : English
Audio #1
ID : 2
Format : AC-3
Format/Info : Audio Coding 3
Codec ID : A_AC3
Duration : 1h 21mn
Bit rate mode : Constant
Bit rate : 384 Kbps
Channel(s) : 6 channels
Channel positions : Front: L C R, Surround: L R, LFE
Sampling rate : 48.0 KHz
Stream size : 224 MiB (15%)
Title : Многоголоска
Audio #2
ID : 3
Format : AC-3
Format/Info : Audio Coding 3
Codec ID : A_AC3
Duration : 1h 21mn
Bit rate mode : Constant
Bit rate : 384 Kbps
Channel(s) : 6 channels
Channel positions : Front: L C R, Surround: L R, LFE
Sampling rate : 48.0 KHz
Stream size : 224 MiB (15%)
Title : Английский
8bf75509cc0fabf507028756bb0fb553c8745508Джона Хекс / Jonah Hex (Джимми Хейуорд, боевик, триллер, драма, вестерн, 2010) [BDRip-AVC, Профессиональный (многоголосый, закадровый) + Оригинал + Sub] Джона Хекс / Jonah Hex (Джимми Хейуорд, боевик, триллер, драма, вестерн, 2010) [BDRip-AVC, Профессиональный (многоголосый, закадровый) + Оригинал + Sub] " />

Аплоадер: Админ, дата: 16-04-2012, 01:16, торрент скачан: 359 раз

Понравилась раздача? Посмотрите эти:
  • Погнали! / Getaway (Кортни Соломон, боевик, криминал, 2013) [BDRip 720p, Пр ...
  • Хроника / Chronicle (Джошуа Транк, фантастика, боевик, триллер, драма, 2012 ...
  • Соучастник / Collateral (Майкл Манн, Триллер, драма, криминал, 2004) [BDRip ...
  • Джона Хекс / Jonah Hex (Джимми Хейуорд, Фэнтези, Боевик, Триллер, Драма, Ве ...
  • Смерть на похоронах / Death at a Funeral (Нил ЛаБут, комедия, 2010) [BDRip ...
  • Убить по расписанию / Ticking Clock (Эрни Барбараш, фантастика, боевик, три ...
  • Шелуха / Husk (Бретт Симмонс, ужасы, триллер, 2011) [BDRip 720p, Профессион ...
  • Джона Хекс / Jonah Hex (Джимми Хейярд, боевик, триллер, драма, вестерн, 201 ...
  • Джона Хекс / Jonah Hex (Джимми Хейуорд, боевик, триллер, драма, вестерн, 20 ...
  • Убийца внутри меня / The Killer Inside Me (Майкл Уинтерботтом / Michael Win ...
  • Мэверик / Maverick (Ричард Доннер, боевик, триллер, комедия, приключения, в ...
  • Дитя человеческое / Children of Men (Альфонсо Куарон, фантастика, триллер, ...
  • Ковбои против пришельцев / Cowboys & Aliens [Расширенная версия](Джон Фавро ...
  • Только ты / Only You (Норман Джуисон. мелодрама, комедия. 1994) [HDTVRip, П ...
  • Дорога / The Road (Джон Хиллкоут, Драма, триллер, приключения, 2009) [BDRip ...
  • Команда «А» / The A-Team (Джо Карнахан, боевик, триллер, комедия, приключен ...
  • Мармадюк / Marmaduke (Том Дей, комедия, семейный, 2010) [BDRip-AVC, Дублиро ...
  • Вальгалла: Сага о викинге / Valhalla Rising (Николас Виндинг Рёфн, боевик, ...
  • Неуловимый Люк / Lucky Luke (Джеймс Хат, Вестерн, 2009) [HDRip-AVC, Професс ...
  • Повторяющие / Repeaters (Карл Бессай, фантастика, боевик, триллер, драма, к ...
  • Роб Рой / Rob Roy (Майкл Кейтон-Джонс, боевик, драма, мелодрама, 1995) [BDR ...
  • Звездный десант: Вторжение / Starship Troopers: Invasion (Синдзи Арамаки, м ...
  • Джона Хекс / Jonah Hex (Джимми Хейуорд, боевик, триллер, драма, вестерн, 20 ...
  • Далеко-далеко / Far and Away (Рон Ховард, драма, мелодрама, приключения, ве ...
  • Джона Хекс / Jonah Hex (Джимми Хейуорд / Jimmy Hayward, триллер, 2010) [BDR ...
  • Информация
    Посетители, находящиеся в группе Гости, не могут оставлять комментарии к данной публикации.