вход на сайт

Имя пользователя :
Пароль :

Восстановление пароля Регистрация
Шаолинь / Shaolin (Бенни Чан, Боевик, 2011) [BDRip - AVC, Профессиональный (многоголосый, закадровый)]
Рейтинг:
(голосов: 1)



[img]{THEME}/images/logopost.png[/img]



Шаолинь / Shaolin
«Великая битва в стенах легенды»

Год выпуска: 2011
Страна: Гонконг Китай
Производство: Beijing Silver Moon Productions
Жанр: боевик, триллер, комедия, криминал

Режиссёр: Бенни Чан
В ролях: Энди Лау, Николас Тсе, Фань Бинбин, Джеки Чан, Джеки Ву, Ю Хин, Ксин Ксин Ксион

Перевод: Профессиональный (многоголосый, закадровый) | BBC Saint-Petersburg
Субтитры: Отсутствуют

Описание: Шаолинь… Вряд ли найдется человек, который не слышал этого легендарного имени и не восхищался безупречной техникой его мастеров боевых искусств. Древняя обитель зачастую оказывалась в гуще сражений, меняя ход истории великой империи.

Вражда между китайскими военачальниками достигла своего предела. В безудержном стремлении завоевать соседние территории они погружают страну в пучину раздора. Молодой воин Сяо Че, одержав победу в поединке над одним из шаолиньских мастеров, начинает этим бахвалиться. Но самонадеянность к добру не ведет. В междоусобных распрях гибнет семья Сяо. Ему самому удается чудом спастись. Сяо укрывают шаолиньские монахи. Известия о бесчинствах местного «царька» достигают стен монастыря. Сяо Че и его новые друзья решают вмешаться и защитить простых людей от произвола жестокого завоевателя. Осуществится ли их дерзкий план? Или в финале битвы им придется спасаться бегством?



Автор рипа : Vaippp

Качество: BDRip-AVC [Исх. Blu-Ray 1080p CHDBits]
Продолжительность: 02:11:05 час.

Формат: MKV
Видео кодек: AVC
Аудио кодек: AC3
Видео: 968x412 (2.35:1), 23.976 fps, AVC ~1 937 kbps avg, 0.203 bit/pixel
Аудио: 48 kHz, AC3, 3/2 (L,C,R,l,r) + LFE ch, ~448 kbps | Russian (MVO)

Премьера (мир): 20 января 2011
Mediainfo ▼General
Unique ID : 174978775513004403503191935124749206201 (0x83A3AFB3EE31B3AA9FC9C47529F4C2B9)
Complete name : I:OtherShaolin.2011.MVO.BDRip.x264_Vaippp.mkv
Format : Matroska
File size : 2.18 GiB
Duration : 2h 11mn
Overall bit rate : 2 386 Kbps
Movie name : Shaolin / 2011 / Release by Vaippp / СПАМ Team
Encoded date : UTC 2011-04-19 03:57:37
Writing application : mkvmerge v4.6.0 (Still Crazy After All These Years) сборка от Mar 10 2011 02:50:32
Writing library : libebml v1.2.0 libmatroska v1.1.0
Video
ID : 1
Format : AVC
Format/Info : Advanced Video Codec
Format profile : [email protected]
Format settings, CABAC : Yes
Format settings, ReFrames : 8 frames
Codec ID : V_MPEG4/ISO/AVC
Duration : 2h 11mn
Bit rate : 1 937 Kbps
Width : 968 pixels
Height : 412 pixels
Display aspect ratio : 2.35:1
Frame rate : 23.976 fps
Color space : YUV
Chroma subsampling : 4:2:0
Bit depth : 8 bits
Scan type : Progressive
Bits/(Pixel*Frame) : 0.203
Stream size : 1.73 GiB (79%)
Title : BDRip by Vaippp
Writing library : x264 core 114 r1913 5fd3dce
Encoding settings : cabac=1 / ref=8 / deblock=1:-3:-2 / analyse=0x3:0x133 / me=umh / subme=9 / psy=1 / psy_rd=0.98:0.12 / mixed_ref=1 / me_range=32 / chroma_me=1 / trellis=2 / 8x8dct=1 / cqm=0 / deadzone=21,11 / fast_pskip=0 / chroma_qp_offset=-3 / threads=4 / sliced_threads=0 / nr=0 / decimate=1 / interlaced=0 / constrained_intra=0 / bframes=7 / b_pyramid=2 / b_adapt=2 / b_bias=0 / direct=3 / weightb=1 / open_gop=0 / weightp=2 / keyint=250 / keyint_min=23 / scenecut=40 / intra_refresh=0 / rc_lookahead=40 / rc=2pass / mbtree=0 / bitrate=1937 / ratetol=1.0 / qcomp=0.70 / qpmin=10 / qpmax=51 / qpstep=4 / cplxblur=20.0 / qblur=0.5 / vbv_maxrate=50000 / vbv_bufsize=62500 / nal_hrd=none / ip_ratio=1.40 / pb_ratio=1.30 / aq=1:0.90 / zones=180368,188593,q=35
Language : Chinese
Audio
ID : 2
Format : AC-3
Format/Info : Audio Coding 3
Mode extension : CM (complete main)
Codec ID : A_AC3
Duration : 2h 11mn
Bit rate mode : Constant
Bit rate : 448 Kbps
Channel(s) : 6 channels
Channel positions : Front: L C R, Side: L R, LFE
Sampling rate : 48.0 KHz
Bit depth : 16 bits
Compression mode : Lossy
Stream size : 420 MiB (19%)
Title : MVO | BBC Saint-Petersburg
Language : Russian
Menu
00:00:0
e5cbbb97a5162d0879e07c77e5c0aaeb120b1b16Шаолинь / Shaolin (Бенни Чан, Боевик, 2011) [BDRip - AVC, Профессиональный (многоголосый, закадровый)] Шаолинь / Shaolin (Бенни Чан, Боевик, 2011) [BDRip - AVC, Профессиональный (многоголосый, закадровый)] " />

Аплоадер: Админ, дата: 14-04-2012, 01:28, торрент скачан: 359 раз

Понравилась раздача? Посмотрите эти:
  • Верное дельце / Une pure affaire (Александр Коффре, Боевик, Комедия, Кримин ...
  • Смерть на похоронах / Death at a Funeral (Нил ЛаБут, комедия, 2010) [BDRip ...
  • Отдел 13 / Diamant 13 (Гайллз Бэхат, Боевик, триллер, криминал, 2009) [BDRi ...
  • Падение последней империи: 1911 / Xinhai geming: 1911 (Чжан Ли, Джеки Чан, ...
  • Убить по расписанию / Ticking Clock (Эрни Барбараш, фантастика, боевик, три ...
  • Шелуха / Husk (Бретт Симмонс, ужасы, триллер, 2011) [BDRip 720p, Профессион ...
  • Шаолинь / Shaolin (Бенни Чан, Боевик, 2011) [BDRip - AVC, Профессиональный ...
  • Шаолинь / Shaolin (Бенни Чан,Боевик,Драма,2011) [HDRip-AVC,Профессиональный ...
  • Обряд / The Rite (Микаэль Хафстрем, ужасы, триллер, драма, 2011) [BDRip-AVC ...
  • Обряд / The Rite (Микаэль Хафстрем, ужасы, триллер, драма, 2011) [BDRip-AVC ...
  • Поворот не туда 4 / Wrong Turn 4 (Деклан О’Брайэн, ужасы, боевик, детектив, ...
  • Охота за "Красным Октябрём" / The Hunt for "Red October" (Джон МакТирнан, б ...
  • Mylene Farmer / Du Temps [2011, Pop, HDTVRip]
  • Mylene Farmer / Bleu Noir [2011, Pop, HDTVRip]
  • Шаолинь / Shaolin (Бенни Чан, Боевик, драма, 2011) [BDRip 720p, Профессиона ...
  • Шаолинь / Shaolin (Бенни Чан, Боевик, драма, 2011) [HDRip, Профессиональный ...
  • Шаолинь / Shaolin (Бенни Чан, боевик, драма, 2011) [BDRip, Профессиональны ...
  • Шаолинь / Shaolin (Бенни Чан, боевик, драма, 2011) [BDRip,Профессиональный ...
  • Шаолинь / Shaolin (Бенни Чан, Боевик, 2011) [НDRip, Профессиональный (много ...
  • Шаолинь / Xin shao lin si (Бенни Чан,боевик , 2011) [DVDRip, Профессиональ ...
  • Информация
    Посетители, находящиеся в группе Гости, не могут оставлять комментарии к данной публикации.