вход на сайт

Имя пользователя :
Пароль :

Восстановление пароля Регистрация
Ниндзя-убийца / Ninja Assassin (Джеймс МакТиг, боевик, триллер, криминал, 2009) [BDRip-AVC, Профессиональный (полное дублирование) + Оригинал]
Рейтинг:
(голосов: 1)



[img]{THEME}/images/logopost.png[/img]



Ниндзя-убийца / Ninja Assassin
Слоган «Бойся не оружия, а того, кто им владеет.»

♥ Год выпуска: 2009
♥ Страна: США Германия
♥ Производство: Anarchos Productions Inc. Dark Castle Entertainment, Legendary Pictures, Medienboard Berlin-Brandenburg, Silver Pictures, Studio Babelsberg, Translux, Warner Bros. Pictures Co.
♥ Жанр: боевик, триллер, криминал

♥ Режиссёр: Джеймс МакТиг
♥ В ролях: Рэйн, Наоми Харрис, Бен Майлз, Рик Юн, Сё Косуги, Рэндолл Дак Ким, Санг Кенг, Джонатан Чан-Пинсли, Илл-Юнг Ким, Юки Ивамото


♥ Перевод: Профессиональный (полное дублирование) [Лицензия] + Оригинал
♥ Субтитры: отсутствуют

♥ Описание: Рейзо — один из самых опасных убийц-ниндзя в мире. Еще ребенком его превратили в профессионального убийцу члены клана «Озуну» — секретной организации, чье существование до сих пор считалось выдумкой. Рейзо, преследуемый муками совести из-за беспощадного убийства своего друга кланом Озуну, сбегает от своих. Но тайные кланы не отпускают «своих» просто так…



♥ Качество: BDRip-AVC
♥ Продолжительность: 01:38:41 час.
♥ Формат: MKV
♥ Видео кодек: H.264
♥ Аудио кодек: AC3
♥ Видео: 1024x432, (2,35:1) 23.976 fps, 1671 Kbps, 0.158 bit/pixel
♥ Аудио #1: 48kHz, AC-3, 6 ch, (Front: L C R, Side: L R, LFE) ~224Kbps kbps avg | Russian
♥ Аудио #2: 48kHz, AC-3, 6 ch, (Front: L C R, Side: L R, LFE) ~224Kbps kbps avg | English

♥ MediaInfo ▼Format : Matroska
Format version : Version 2
File size : 1.46 GiB
Duration : 1h 38mn
Overall bit rate : 2 119 Kbps
Movie name : Ninja Assassin 2009 - Release for zyyx (pirat.ca)
Encoded date : UTC 2012-04-09 08:54:12
Writing application : mkvmerge v4.9.1 (Ich will) сборка от Jul 11 2011 23:53:15
Writing library : libebml v1.2.1 + libmatroska v1.1.1

Video
ID : 1
Format : AVC
Format/Info : Advanced Video Codec
Format profile : [email protected]
Format settings, CABAC : Yes
Format settings, ReFrames : 11 frames
Muxing mode : Header stripping
Codec ID : V_MPEG4/ISO/AVC
Duration : 1h 38mn
Bit rate : 1 671 Kbps
Width : 1 024 pixels
Height : 432 pixels
Display aspect ratio : 2.35:1
Frame rate : 23.976 fps
Color space : YUV
Chroma subsampling : 4:2:0
Bit depth : 8 bits
Scan type : Progressive
Bits/(Pixel*Frame) : 0.158
Stream size : 1.12 GiB (77%)
Writing library : x264 core 116 r2044 392e762
Default : Yes
Forced : No

Audio #1
ID : 2
Format : AC-3
Format/Info : Audio Coding 3
Mode extension : CM (complete main)
Muxing mode : Header stripping
Codec ID : A_AC3
Duration : 1h 38mn
Bit rate mode : Constant
Bit rate : 224 Kbps
Channel(s) : 6 channels
Channel positions : Front: L C R, Side: L R, LFE
Sampling rate : 48.0 KHz
Bit depth : 16 bits
Compression mode : Lossy
Stream size : 158 MiB (11%)
Default : Yes
Forced : No

Audio #2
ID : 3
Format : AC-3
Format/Info : Audio Coding 3
Mode extension : CM (complete main)
Muxing mode : Header stripping
Codec ID : A_AC3
Duration : 1h 38mn
Bit rate mode : Constant
Bit rate : 224 Kbps
Channel(s) : 6 channels
Channel positions : Front: L C R, Side: L R, LFE
Sampling rate : 48.0 KHz
Bit depth : 16 bits
Compression mode : Lossy
Stream size : 158 MiB (11%)
Default : No
Forced : No


d9684859e70c2cb82d93fa1a5ba586d88a5097a0Ниндзя-убийца / Ninja Assassin (Джеймс МакТиг, боевик, триллер, криминал, 2009) [BDRip-AVC, Профессиональный (полное дублирование) + Оригинал] Ниндзя-убийца / Ninja Assassin (Джеймс МакТиг, боевик, триллер, криминал, 2009) [BDRip-AVC, Профессиональный (полное дублирование) + Оригинал] " />

Аплоадер: Админ, дата: 11-04-2012, 23:34, торрент скачан: 359 раз

Понравилась раздача? Посмотрите эти:
  • Два ствола / 2 Guns (Бальтасар Кормакур, боевик, триллер, драма, комедия, к ...
  • Пастырь / Priest (Скотт Чарльз Стюарт, ужасы, фантастика, боевик, триллер, ...
  • Четвертый вид / The Fourth Kind (Олатунде Осунсанми, ужасы, фантастика, 200 ...
  • Соучастник / Collateral (Майкл Манн, Триллер, драма, криминал, 2004) [BDRip ...
  • Отдел 13 / Diamant 13 (Гайллз Бэхат, Боевик, триллер, криминал, 2009) [BDRi ...
  • Убить по расписанию / Ticking Clock (Эрни Барбараш, фантастика, боевик, три ...
  • Аноним / Anonymous (Роланд Эммерих, триллер, драма, 2011) [BDRip-AVC, Профе ...
  • Голодный кролик атакует / Seeking Justice (Роджер Дональдсон / Roger Donald ...
  • Фантомы / Shutter (Масаюки Очиай, ужасы, триллер, детектив, 2008) [BDRip-AV ...
  • Ниндзя-убийца / Ninja Assassin (Джеймс МакТиг, боевик, триллер, криминал, 2 ...
  • Черное золото / Black Gold (Жан-Жак Анно, Драма, 2011) [BDRip-AVC, Професси ...
  • Коллекционер 2 / The Collection (Маркус Данстэн, ужасы, боевик, триллер , 2 ...
  • [3D] Аватар 3D / Avatar 3D (Джеймс Кэмерон / James Cameron, Фантастика, бое ...
  • [3D] Призрачный гонщик 2 / Ghost Rider: Spirit of Vengeance (Марк Невелдайн ...
  • Ниндзя-убийцa / Ninja Assassin (Джеймс МакТиг, Боевик, триллер, драма, крим ...
  • Ворон / The Raven (Джеймс МакТиг, Триллер, детектив, 2012) [BDRip 720p, Дуб ...
  • Ниндзя-убийца / Ninja Assassin (Джеймс МакТиг, боевик, триллер, криминал, 2 ...
  • Ниндзя-убийца / Ninja Assassin (Джеймс МакТиг , боевик, триллер, драма, кри ...
  • Ниндзя-убийца / Ninja Assassin (Джеймс МакТиг, Боевик, триллер, драма, крим ...
  • Футбольные гладиаторы / Ушедшее время / Awaydays (Пэт Холден, драма, кримин ...
  • Информация
    Посетители, находящиеся в группе Гости, не могут оставлять комментарии к данной публикации.