вход на сайт

Имя пользователя :
Пароль :

Восстановление пароля Регистрация
Миссия невыполнима: Протокол Фантом / Mission: Impossible - Ghost Protocol (Брэд Бёрд, боевик, триллер, приключения, 2011) [BDRip-AVC, Дублированный + Оригинал + Sub]
Рейтинг:
(голосов: 1)



[img]{THEME}/images/logopost.png[/img]



Миссия невыполнима: Протокол Фантом / Mission: Impossible - Ghost Protocol

«Плана нет. Помощи нет. Выбора нет»

Год выпуска: 2011
Страна: США, ОАЭ
Производство: Paramount Pictures
Жанр: боевик, триллер, приключения

Режиссёр: Брэд Бёрд
В ролях: Том Круз, Пола Пэттон, Саймон Пегг, Джереми Реннер, Микаэл Нюквист, Владимир Машков, Самули Эдельманн, Иван Шведов, Анил Капур, Леа Сейду

Перевод: дублированный + оригинал
Субтитры: русские (vorinine по дубляжу), английские

Описание: Специальный агент отряда «Миссия невыполнима» Итан Хант и его коллеги несправедливо обвинены в причастности к взрыву Кремля. Президент инициирует «Протокол Фантом», в результате которого спецподразделение ликвидировано, и Итан остается без какой-либо поддержки. Он намерен очистить свое доброе имя и предотвратить новую атаку, но делать это ему придется вместе с командой коллег, истинных мотивов которых он до конца не знает...

Рейтинг:
imdb.com: 7.60 (86 735)
kinopoisk.ru: 7.53 (17 171)

Качество: BDRip-AVC (Enclave76)
Продолжительность: 02:12:56

Формат: MKV
Видео кодек: H.264
Аудио кодек: AС3
Видео: 1152x480 (2.40:1), 23.976 fps, ~3820 Kbps, 0.28 bit/pixel
Аудио #1: 48 kHz, 5.1 ch, ~448.00 kbps | Дубляж
Аудио #2: 48 kHz, 5.1 ch, ~448.00 kbps | Оригинал
Media Info ▼
General
Complete name : E:...Mission.Impossible.Ghost.Protocol.2011.BDRip.x264.DD5.1.Rus.Eng.mkv
Format : Matroska
Format version : Version 2
File size : 4.38 GiB
Duration : 2h 12mn
Overall bit rate : 4 721 Kbps
Movie name : Mission.Impossible.Ghost.Protocol.2011.BDRip.x264.DD5.1.Rus.Eng-E76
Encoded date : UTC 2012-04-08 17:39:10
Writing application : mkvmerge v5.2.1 (A Far Off Place) built on Jan 2 2012 23:21:10
Writing library : libebml v1.2.3 + libmatroska v1.3.0

Video
ID : 1
Format : AVC
Format/Info : Advanced Video Codec
Format profile : [email protected]
Format settings, CABAC : Yes
Format settings, ReFrames : 14 frames
Codec ID : V_MPEG4/ISO/AVC
Duration : 2h 12mn
Bit rate : 3 731 Kbps
Width : 1 152 pixels
Height : 480 pixels
Display aspect ratio : 2.40:1
Frame rate : 23.976 fps
Color space : YUV
Chroma subsampling : 4:2:0
Bit depth : 8 bits
Scan type : Progressive
Bits/(Pixel*Frame) : 0.281
Stream size : 3.46 GiB (79%)
Title : Encode by Enclave76 for rutracker.org
Writing library : x264 core 122 r2184kMod 5c85e0a
Encoding settings : cabac=1 / ref=14 / deblock=1:-3:-3 / analyse=0x3:0x113 / me=umh / subme=11 / psy=1 / fade_compensate=0.00 / psy_rd=1.00:0.00 / mixed_ref=1 / me_range=48 / chroma_me=1 / trellis=2 / 8x8dct=1 / cqm=0 / deadzone=21,11 / fast_pskip=1 / chroma_qp_offset=-2 / threads=6 / sliced_threads=0 / nr=0 / decimate=1 / interlaced=0 / bluray_compat=0 / constrained_intra=0 / bframes=16 / b_pyramid=2 / b_adapt=2 / b_bias=0 / direct=1 / weightb=1 / open_gop=0 / weightp=2 / keyint=240 / keyint_min=23 / scenecut=40 / intra_refresh=0 / rc_lookahead=40 / rc=crf / mbtree=0 / crf=17.5000 / qcomp=0.60 / qpmin=0 / qpmax=69 / qpstep=4 / vbv_maxrate=50000 / vbv_bufsize=62500 / crf_max=0.0 / nal_hrd=none / ip_ratio=1.40 / pb_ratio=1.30 / aq=3:1.00 / zones=181850,191238,q=35
Language : English
Matrix coefficients : BT.709-5, BT.1361, IEC 61966-2-4 709, SMPTE RP177

Audio #1
ID : 2
Format : AC-3
Format/Info : Audio Coding 3
Mode extension : CM (complete main)
Codec ID : A_AC3
Duration : 2h 12mn
Bit rate mode : Constant
Bit rate : 448 Kbps
Channel(s) : 6 channels
Channel positions : Front: L C R, Side: L R, LFE
Sampling rate : 48.0 KHz
Bit depth : 16 bits
Compression mode : Lossy
Stream size : 426 MiB (9%)
Title : Dub
Language : Russian

Audio #2
ID : 3
Format : AC-3
Format/Info : Audio Coding 3
Mode extension : CM (complete main)
Codec ID : A_AC3
Duration : 2h 12mn
Bit rate mode : Constant
Bit rate : 448 Kbps
Channel(s) : 6 channels
Channel positions : Front: L C R, Side: L R, LFE
Samp
b0d52fef62fa82a2498127f716da20e8eb40443aМиссия невыполнима: Протокол Фантом / Mission: Impossible - Ghost Protocol (Брэд Бёрд, боевик, триллер, приключения, 2011) [BDRip-AVC, Дублированный + Оригинал + Sub] Миссия невыполнима: Протокол Фантом / Mission: Impossible - Ghost Protocol (Брэд Бёрд, боевик, триллер, приключения, 2011) [BDRip-AVC, Дублированный + Оригинал + Sub] " />

Аплоадер: Админ, дата: 9-04-2012, 09:46, торрент скачан: 359 раз

Понравилась раздача? Посмотрите эти:
  • Аноним / Anonymous (Роланд Эммерих, триллер, драма, 2011) [BDRip-AVC, Профе ...
  • Мартовские иды / The Ides of March (Джордж Клуни / George Clooney, драма, 2 ...
  • Миссия невыполнима: Протокол Фантом / Mission: Impossible - Ghost Protocol ...
  • Миссия невыполнима: Протокол Фантом / Mission: Impossible - Ghost Protocol ...
  • Миссия невыполнима: Протокол Фантом / Mission: Impossible - Ghost Protocol ...
  • Миссия невыполнима: Протокол Фантом / Mission: Impossible - Ghost Protocol ...
  • Миссия невыполнима: Протокол Фантом / Mission: Impossible - Ghost Protocol ...
  • Миссия невыполнима: Протокол Фантом / Mission: Impossible - Ghost Protocol ...
  • Миссия невыполнима: Протокол Фантом / Mission: Impossible - Ghost Protocol ...
  • Mylene Farmer / Du Temps [2011, Pop, HDTVRip]
  • Mylene Farmer / Bleu Noir [2011, Pop, HDTVRip]
  • Миссия невыполнима: Протокол Фантом / Mission: Impossible - Ghost Protocol ...
  • Миссия невыполнима: Протокол Фантом / Mission: Impossible - Ghost Protocol ...
  • Миссия невыполнима: Протокол Фантом / Mission: Impossible - Ghost Protocol ...
  • Миссия невыполнима: Протокол Фантом / Mission: Impossible - Ghost Protocol ...
  • Миссия невыполнима: Протокол Фантом / Mission: Impossible - Ghost Protocol ...
  • Миссия невыполнима: Протокол Фантом / Mission: Impossible - Ghost Protocol ...
  • Миссия Невыполнима: Протокол Фантом / Mission: Impossible - Ghost Protocol ...
  • Миссия невыполнима: Протокол Фантом / Mission: Impossible - Ghost Protocol ...
  • Миссия Невыполнима: Протокол Фантом / Mission: Impossible - Ghost Protocol ...
  • Миссия невыполнима: Протокол Фантом / Mission: Impossible - Ghost Protocol ...
  • Шерлок Холмс: Игра теней / Sherlock Holmes: A Game of Shadows (Гай Ричи, Бо ...
  • Миссия невыполнима: Протокол Фантом / Mission: Impossible - Ghost Protocol ...
  • Миссия Невыполнима: Протокол Фантом / Mission: Impossible - Ghost Protocol ...
  • Миссия невыполнима: Протокол Фантом / Mission: Impossible - Ghost Protocol ...
  • Информация
    Посетители, находящиеся в группе Гости, не могут оставлять комментарии к данной публикации.