вход на сайт

Имя пользователя :
Пароль :

Восстановление пароля Регистрация
Миссия невыполнима: Протокол Фантом / Mission: Impossible - Ghost Protocol (Брэд Бёрд, боевик, триллер, приключения, 2011) [BDRip-AVC, Дублированный + суб]
Рейтинг:
(голосов: 1)



[img]{THEME}/images/logopost.png[/img]



Миссия невыполнима: Протокол Фантом / Mission: Impossible - Ghost Protocol
«Плана нет. Помощи нет. Выбора нет.»

Год выпуска: 2011
Страна: США ОАЭ
Производство: Skydance Productions,Stillking Films,Paramount Pictures,Bad Robot
Жанр: боевик, триллер, приключения

Режиссёр: Брэд Бёрд
В ролях: Том Круз, Пола Пэттон, Саймон Пегг, Джереми Реннер, Микаэл Нюквист, Владимир Машков, Самули Эдельманн, Иван Шведов, Анил Капур, Леа Сейду

Перевод: Дублированный
Субтитры: Английские

Описание: Специальный агент отряда «Миссия невыполнима» Итан Хант и его коллеги несправедливо обвинены в причастности к взрыву Кремля. Президент инициирует «Протокол Фантом», в результате которого спецподразделение ликвидировано, и Итан остается без какой-либо поддержки. Он намерен очистить свое доброе имя и предотвратить новую атаку, но делать это ему придется вместе с командой коллег, истинных мотивов которых он до конца не знает.Дата премьеры (мир): 7 декабря 2011
Дата премьеры (РФ): 14 декабря 2011, «Централ Партнершип»
Качество: BDRip-AVC
Продолжительность: 02:08:19


Формат: MKV
Видео кодек: x264
Аудио кодек: AC3
Видео: 1200x500 (2.40:1), 23.976 fps, AVC, ~1959 Kbps, 0.136 bits/pixel
Аудио1: 48 kHz, AC3 Dolby Digital, 3/2 (L,C,R,l,r) + LFE ch, ~384 kbps RUS
MediaInfo ▼TextGeneral
Unique ID : 177018390088456047794746769544403327111 (0x852C80772297E05DB8678F52C2C59887)
Complete name : E:DownloadsMissiya-Fantom.2.18.chopper887.mkv
Format : Matroska
Format version : Version 2
File size : 2.18 GiB
Duration : 2h 12mn
Overall bit rate : 2 343 Kbps
Movie name : Missiya-Fantom.2.18.chopper887
Encoded date : UTC 2012-04-05 15:30:57
Writing application : mkvmerge v4.8.0 (I Got The...) сборка от May 24 2011 03:12:58
Writing library : libebml v1.2.0 + libmatroska v1.1.0

Video
ID : 1
Format : AVC
Format/Info : Advanced Video Codec
Format profile : [email protected]
Format settings, CABAC : Yes
Format settings, ReFrames : 10 frames
Codec ID : V_MPEG4/ISO/AVC
Duration : 2h 12mn
Bit rate : 1 959 Kbps
Width : 1 200 pixels
Height : 500 pixels
Display aspect ratio : 2.40:1
Frame rate : 23.976 fps
Color space : YUV
Chroma subsampling : 4:2:0
Bit depth : 8 bits
Scan type : Progressive
Bits/(Pixel*Frame) : 0.136
Stream size : 1.78 GiB (82%)
Title : Missiya-Fantom.2.18.chopper887
Writing library : x264 core 120 r2164 da19765
Encoding settings : cabac=1 / ref=10 / deblock=1:-2:-1 / analyse=0x3:0x133 / me=umh / subme=11 / psy=1 / psy_rd=1.00:0.10 / mixed_ref=1 / me_range=32 / chroma_me=1 / trellis=2 / 8x8dct=1 / cqm=0 / deadzone=21,11 / fast_pskip=0 / chroma_qp_offset=-3 / threads=12 / sliced_threads=0 / nr=0 / decimate=1 / interlaced=0 / bluray_compat=0 / constrained_intra=0 / bframes=6 / b_pyramid=2 / b_adapt=2 / b_bias=0 / direct=3 / weightb=1 / open_gop=0 / weightp=2 / keyint=240 / keyint_min=23 / scenecut=40 / intra_refresh=0 / rc_lookahead=80 / rc=2pass / mbtree=1 / bitrate=1959 / ratetol=1.0 / qcomp=0.60 / qpmin=10 / qpmax=51 / qpstep=4 / cplxblur=20.0 / qblur=0.5 / ip_ratio=1.40 / aq=1:1.00
Language : English
Default : Yes
Forced : No

Audio
ID : 2
Format : AC-3
Format/Info : Audio Coding 3
Mode extension : CM (complete main)
Codec ID : A_AC3
Duration : 2h 12mn
Bit rate mode : Constant
Bit rate : 384 Kbps
Channel(s) : 6 channels
Channel positions : Front: L C R, Side: L R, LFE
Sampling rate : 48.0 KHz
Bit depth : 16 bits
Compression mode : Lossy
Stream size : 365 MiB (16%)
Title : Rus
Default : Yes
Forced : No

Text #1
ID : 3
Format : UTF-8
Codec ID : S_TEXT/UTF8
Codec ID/Info : UTF-8 Plain Text
Title : Eng-forced
Default : Yes
Forced : No
&n
adc0b398dd01d551e360a7e4d72f8fb054fcfdcaМиссия невыполнима: Протокол Фантом / Mission: Impossible - Ghost Protocol (Брэд Бёрд, боевик, триллер, приключения, 2011) [BDRip-AVC, Дублированный + суб] Миссия невыполнима: Протокол Фантом / Mission: Impossible - Ghost Protocol (Брэд Бёрд, боевик, триллер, приключения, 2011) [BDRip-AVC, Дублированный + суб] " />

Аплоадер: Админ, дата: 6-04-2012, 13:08, торрент скачан: 359 раз

Понравилась раздача? Посмотрите эти:
  • Миссия: невыполнима [Квадрология] / Mission: Impossible [Quadrilogy] (Брайа ...
  • Хранитель времени / Hugo (Мартин Скорсезе, Драма, 2011) [BDRip-AVC, Професс ...
  • Миссия невыполнима: Протокол Фантом / Mission: Impossible - Ghost Protocol ...
  • Миссия невыполнима: Протокол Фантом / Mission: Impossible - Ghost Protocol ...
  • Миссия невыполнима: Протокол Фантом / Mission: Impossible - Ghost Protocol ...
  • Миссия невыполнима [Квадрология] / Mission Impossible [Quadrilogy] (Брайан ...
  • Миссия невыполнима: Протокол Фантом / Mission: Impossible - Ghost Protocol ...
  • Миссия невыполнима: Протокол Фантом / Mission: Impossible - Ghost Protocol ...
  • Миссия невыполнима: Протокол Фантом / Mission: Impossible - Ghost Protocol ...
  • Миссия невыполнима: Протокол Фантом / Mission: Impossible - Ghost Protocol ...
  • Mylene Farmer / Du Temps [2011, Pop, HDTVRip]
  • Миссия: Невыполнима 3 / Mission: Impossible III (Дж. Дж. Абрамс, Боевик, Тр ...
  • Миссия невыполнима: Протокол Фантом / Mission: Impossible - Ghost Protocol ...
  • Миссия невыполнима: Протокол Фантом / Mission: Impossible - Ghost Protocol ...
  • Миссия невыполнима: Протокол Фантом / Mission: Impossible - Ghost Protocol ...
  • Миссия невыполнима: Протокол Фантом / Mission: Impossible - Ghost Protocol ...
  • Миссия невыполнима: Протокол Фантом / Mission: Impossible - Ghost Protocol ...
  • Миссия невыполнима: Протокол Фантом / Mission: Impossible - Ghost Protocol ...
  • Миссия Невыполнима: Протокол Фантом / Mission: Impossible - Ghost Protocol ...
  • Миссия невыполнима: Протокол Фантом / Mission: Impossible - Ghost Protocol ...
  • Миссия Невыполнима: Протокол Фантом / Mission: Impossible - Ghost Protocol ...
  • Миссия невыполнима: Протокол Фантом / Mission: Impossible - Ghost Protocol ...
  • Миссия невыполнима: Протокол Фантом / Mission: Impossible - Ghost Protocol ...
  • Миссия Невыполнима: Протокол Фантом / Mission: Impossible - Ghost Protocol ...
  • Миссия невыполнима: Протокол Фантом / Mission: Impossible - Ghost Protocol ...
  • Информация
    Посетители, находящиеся в группе Гости, не могут оставлять комментарии к данной публикации.