вход на сайт

Имя пользователя :
Пароль :

Восстановление пароля Регистрация
Курьер / The Courier (Хани Абу-Ассад, боевик, триллер, криминал, 2011) [HDRip-AVC, Профессиональный (многоголосый, закадровый)]
Рейтинг:
(голосов: 1)



[img]{THEME}/images/logopost.png[/img]



Курьер / The Courier

Год выпуска: 2011
Страна: США
Производство: Films In Motion
Жанр: боевик, триллер, криминал

Режиссёр: Хани Абу-Ассад
В ролях: Микки Рурк, Джеффри Дин Морган, Тиль Швайгер, Мигель Феррер, Лили Тейлор, Марк Марголис, Джози Хо, Дэвид Дженсен, Том Проктер, Майкл Арата

Перевод: Профессиональный (многоголосый, закадровый)
Субтитры: Отсутствуют

Описание: В фильме рассказывается об отважном курьере, пытающемся доставить чемоданчик некоему криминальному авторитету, местонахождение которого никому не известно. Выполнить эту миссию курьеру всячески мешают коррумпированные полицейские и представители преступного мира, преследующие его по всей стране.



Качество: HDRip-AVC
Продолжительность: 01:35:08

Формат: MKV
Видео кодек: H264
Аудио кодек: AC3
Видео: 1200x510 (2.35:1), 23.976 fps, AVC, ~1804 Kbps, 0.123 bits/pixel
Аудио: 48 kHz, AC3 Dolby Digital, 3/2 (L,C,R,l,r) + LFE ch, ~384 kbps

MediaInfo ▼General
Unique ID : 177845140266344922933293984619823274300 (0x85CBBA656F46521D92675D9F85B2993C)
Complete name : E:DownloadsKurier-MVO.chopper887.mkv
Format : Matroska
Format version : Version 2
File size : 1.45 GiB
Duration : 1h 35mn
Overall bit rate : 2 189 Kbps
Movie name : Kurier-MVO.chopper887
Encoded date : UTC 2012-04-03 14:34:19
Writing application : mkvmerge v4.8.0 (I Got The...) сборка от May 24 2011 03:12:58
Writing library : libebml v1.2.0 + libmatroska v1.1.0

Video
ID : 1
Format : AVC
Format/Info : Advanced Video Codec
Format profile : [email protected]
Format settings, CABAC : Yes
Format settings, ReFrames : 8 frames
Codec ID : V_MPEG4/ISO/AVC
Duration : 1h 35mn
Bit rate : 1 804 Kbps
Width : 1 200 pixels
Height : 510 pixels
Display aspect ratio : 2.35:1
Frame rate : 23.976 fps
Color space : YUV
Chroma subsampling : 4:2:0
Bit depth : 8 bits
Scan type : Progressive
Bits/(Pixel*Frame) : 0.123
Stream size : 1.17 GiB (80%)
Title : Kurier-MVO.chopper887
Writing library : x264 core 120 r2164 da19765
Encoding settings : cabac=1 / ref=8 / deblock=1:-2:-1 / analyse=0x3:0x133 / me=umh / subme=11 / psy=1 / psy_rd=1.10:0.10 / mixed_ref=1 / me_range=48 / chroma_me=1 / trellis=2 / 8x8dct=1 / cqm=0 / deadzone=21,11 / fast_pskip=0 / chroma_qp_offset=-3 / threads=12 / sliced_threads=0 / nr=0 / decimate=1 / interlaced=0 / bluray_compat=0 / constrained_intra=0 / bframes=5 / b_pyramid=2 / b_adapt=2 / b_bias=0 / direct=3 / weightb=1 / open_gop=0 / weightp=2 / keyint=240 / keyint_min=23 / scenecut=40 / intra_refresh=0 / rc_lookahead=80 / rc=2pass / mbtree=1 / bitrate=1804 / ratetol=1.0 / qcomp=0.60 / qpmin=10 / qpmax=51 / qpstep=4 / cplxblur=20.0 / qblur=0.5 / ip_ratio=1.40 / aq=1:1.00
Language : English
Default : Yes
Forced : No

Audio
ID : 2
Format : AC-3
Format/Info : Audio Coding 3
Mode extension : CM (complete main)
Codec ID : A_AC3
Duration : 1h 35mn
Bit rate mode : Constant
Bit rate : 384 Kbps
Channel(s) : 6 channels
Channel positions : Front: L C R, Side: L R, LFE
Sampling rate : 48.0 KHz
Bit depth : 16 bits
Compression mode : Lossy
Stream size : 261 MiB (18%)
Title : MVO
Default : Yes
Forced : No

Наши рипы / Набор в РГ/Стол заказов РГ / Стол заказов по РИПам


27e757ff1dd0c6f7bbc05b6e3d5e745b115b6161Курьер / The Courier (Хани Абу-Ассад, боевик, триллер, криминал, 2011) [HDRip-AVC, Профессиональный (многоголосый, закадровый)] Курьер / The Courier (Хани Абу-Ассад, боевик, триллер, криминал, 2011) [HDRip-AVC, Профессиональный (многоголосый, закадровый)] " />

Аплоадер: Админ, дата: 3-04-2012, 22:05, торрент скачан: 359 раз

Понравилась раздача? Посмотрите эти:
  • Погнали! / Getaway (Кортни Соломон, боевик, криминал, 2013) [BDRip 720p, Пр ...
  • Пастырь / Priest (Скотт Чарльз Стюарт, ужасы, фантастика, боевик, триллер, ...
  • Посылка / The Package (Джесси Джонсон, боевик, 2013) [BDRip 720p, Профессио ...
  • Отдел 13 / Diamant 13 (Гайллз Бэхат, Боевик, триллер, криминал, 2009) [BDRi ...
  • Водитель / The Driver (Уолтер Хилл, Боевик, триллер, драма, криминал, 1978) ...
  • Суррогат / The Sessions (Бен Луин, драма, 2012) [BDRip 720p, Профессиональн ...
  • Убить по расписанию / Ticking Clock (Эрни Барбараш, фантастика, боевик, три ...
  • Аноним / Anonymous (Роланд Эммерих, триллер, драма, 2011) [BDRip-AVC, Профе ...
  • Профессионал / Killer Elite (Гэри МакКендри , боевик, триллер, криминал, 20 ...
  • Властелин измерений / Grande ourse - La cle des possibles (Патрис Сов, фант ...
  • Голодный кролик атакует / Seeking Justice (Роджер Дональдсон / Roger Donald ...
  • Мартовские иды / The Ides of March (Джордж Клуни / George Clooney, драма, 2 ...
  • Похищенная / A Lonely Place to Die (Джулиан Джилби, триллер, криминал, прик ...
  • Воин / Warrior (Гэвин О’Коннор, боевик, драма, спорт, 2011) [HDRip-AVC, Про ...
  • Экстрасенс / The Awakening (Ник Мерфи, ужасы, триллер, 2011) [BDRip-AVC, Ду ...
  • «Старый» Новый год / New Years Eve (Гэрри Маршалл, Мелодрама, 2011) [BDRip- ...
  • Нокаут / Haywire (Стивен Содерберг, боевик, триллер, 2011) [BDRip-AVC, Дубл ...
  • Ева: Искусственный разум / Eva (Кике Маильо, фантастика, фэнтези, драма, 20 ...
  • Пятница 13-е / Friday the 13th (Шон С. Каннингэм, ужасы, триллер, детектив, ...
  • «Весёлые» каникулы / Get the Gringo (Адриан Грюнберг, Боевик, комедия, 2012 ...
  • Chelsea - Season Review 2011-12 / Челси - Обзор Сезона 2011-12 [ Футбол, 20 ...
  • Mylene Farmer / Du Temps [2011, Pop, HDTVRip]
  • Mylene Farmer / Bleu Noir [2011, Pop, HDTVRip]
  • Курьер / The Courier (Хани Абу-Ассад, триллер, криминал, 2011) [HDRip,Профе ...
  • Курьер / The Courier (Хани Абу-Ассад, боевик, триллер, криминал, 2011) [HDR ...
  • Информация
    Посетители, находящиеся в группе Гости, не могут оставлять комментарии к данной публикации.