вход на сайт

Имя пользователя :
Пароль :

Восстановление пароля Регистрация
Отряд особого назначения / Forces speciales (Стефан Рибожа, боевик, драма, приключения, 2011) [BDRip-AVC, Профессиональный (полное дублирование), Субтитры]
Рейтинг:
(голосов: 1)



[img]{THEME}/images/logopost.png[/img]



Отряд особого назначения / Forces speciales

Год выпуска: 2011
Страна: Франция
Производство: A Plus Image 2 / Canal+ [fr]
Жанр: боевик, драма, приключения

Режиссёр: Стефан Рибожа
В ролях: Дайан Крюгер, Джимон Хунсу, Бенуа Мажимель, Дэнис Меночет, Рафаэль Персонас, Ален Фиглаж, Ален Аливон, Мехди Неббу, Раз Деган, Чеки Карио

Перевод: Профессиональный (полное дублирование)
Субтитры: Русские, Английские

Описание: Молодая французская журналистка похищена в Афганистане талибами. Правительство Франции отказывается выполнять условия похитителей. Тогда талибы размещают в Интернете жестокое видео с обратным отсчетом времени до ее казни. На выручку девушке отправляется элитный отряд французского спецназа. Но мало отбить жертву у бандитов, нужно еще вывести ее на Большую землю. Возвращение домой становится крестным путем и для гражданской журналистки, и для бывалых вояк-спецназовцев.



Релиз от:

Сэмпл

Качество: BDRip-AVC
Продолжительность: 01:48:46

Формат: MKV
Видео кодек: AVC
Аудио кодек: AC3
Видео: 1026 x 430 (2,40:1) at 24.000 fps, 2467 Кбит/сек, 0.233 bit/pixel
Аудио: AC-3, 48.0 KHz, 6 channels, (Front: L C R, Side: L R, LFE), 384 Kbps

Дата премьеры (мир): 2 ноября 2011
Дата премьеры (РФ): 3 ноября 2011, «Top Film Distribution»

"MediaInfo" ▼Общее
Уникальный идентификатор : 246027861767047294752389868642977226200 (0xB9173E1BE3E9CC8EBA1ACED35E389DD8)
Полное имя : D:СкачкаOtryad.Osobogo.Naznacheniya.2011.RUS.BDRip-AVC.AC3.-HQ-ViDEO.mkv
Формат : Matroska
Версия формата : Version 2
Размер файла : 2,21 Гбайт
Продолжительность : 1 ч. 48 м.
Общий поток : 2909 Кбит/сек
Название фильма : Forces spéciales (2011) - HQ-ViDEO
Дата кодирования : UTC 2012-03-15 10:31:38
Программа кодирования : mkvmerge v5.4.0 (Piper) built on Mar 10 2012 13:34:39
Библиотека кодирования : libebml v1.2.3 + libmatroska v1.3.0

Видео
Идентификатор : 1
Формат : AVC
Формат/Информация : Advanced Video Codec
Профиль формата : [email protected]
Параметр CABAC формата : Да
Параметр ReFrames формата : 11 кадров
Идентификатор кодека : V_MPEG4/ISO/AVC
Продолжительность : 1 ч. 48 м.
Битрейт : 2467 Кбит/сек
Ширина : 1026 пикселей
Высота : 430 пикселей
Соотношение сторон : 2,40:1
Частота кадров : 24,000 кадра/сек
Цветовое пространство : YUV
Субдискретизация насыщенности : 4:2:0
Битовая глубина : 8 бит
Тип развёртки : Прогрессивная
Бит/(Пиксели*Кадры) : 0.233
Размер потока : 1,87 Гбайт (85%)
Заголовок : Vaippp
Библиотека кодирования : x264 core 122 r2184 5c85e0a
Настройки программы : cabac=1 / ref=11 / deblock=1:-1:-1 / analyse=0x3:0x113 / me=umh / subme=10 / psy=1 / psy_rd=0.95:0.03 / mixed_ref=1 / me_range=32 / chroma_me=1 / trellis=2 / 8x8dct=1 / cqm=0 / deadzone=21,11 / fast_pskip=1 / chroma_qp_offset=-3 / threads=12 / sliced_threads=0 / nr=0 / decimate=1 / interlaced=0 / bluray_compat=0 / constrained_intra=0 / bframes=11 / b_pyramid=2 / b_adapt=2 / b_bias=0 / direct=1 / weightb=1 / open_gop=0 / weightp=2 / keyint=240 / keyint_min=22 / scenecut=40 / intra_refresh=0 / rc_lookahead=40 / rc=crf / mbtree=0 / crf=19.3 / qcomp=0.70 / qpmin=0 / qpmax=69 / qpstep=4 / vbv_maxrate=50000 / vbv_bufsize=62500 / crf_max=0.0 / nal_hrd=none / ip_ratio=1.35 / pb_ratio=1.25 / aq=1:0.90
Язык : English
Default : Да
Forced : Нет
Коэффициенты матрицы : BT.709-5, BT.1361, IEC 61966-2-4 709, SMPTE RP177

Аудио
Идентификатор : 2
Формат : AC-3
Формат/Информация : Audio Coding 3
Расширение режима : CM (complete main)
Идентификатор кодека : A_AC3
Продолжительность : 1 ч. 48 м.
Вид битрейта : Постоянный
Битрейт : 384 Кбит/сек
Каналы : 6 каналов
Расположение каналов : Front: L C R, Side: L R, LFE
Частота : 48,0 КГц
Битовая глубина : 16 бит
Метод сжатия : С потерями
Размер потока : 299 Мбайт (13%)
Заголовок : DUB @ R5
Язык : Russian
Default : Да
Forced : Да

Текст #1
Идентификатор : 3
6f692ba7ad32f32a104632bf7210f29a47354b81Отряд особого назначения / Forces speciales (Стефан Рибожа, боевик, драма, приключения, 2011) [BDRip-AVC, Профессиональный (полное дублирование), Субтитры] Отряд особого назначения / Forces speciales (Стефан Рибожа, боевик, драма, приключения, 2011) [BDRip-AVC, Профессиональный (полное дублирование), Субтитры] " />

Аплоадер: Админ, дата: 17-03-2012, 20:29, торрент скачан: 359 раз

Понравилась раздача? Посмотрите эти:
  • Лавлэйс / Lovelace (Роб Эпштейн, Джеффри Фридман, драма, биография, 2013) [ ...
  • Исходный код / Source Code (Дункан Джонс, фантастика, боевик, триллер, драм ...
  • Летучий отряд Скотланд-Ярда / The Sweeney (Ник Лав, Боевик, драма, криминал ...
  • Отряд особого назначения / Forces speciale (Стефан Рибожад, боевик, драма, ...
  • Отряд особого назначения / Forces spéciales (Стефан Рибожад, боевик, драма, ...
  • Челюсти 3D / Shark Night 3D ( Дэвид Р. Эллис, ужасы, 2011) [BDRip-AVC, Проф ...
  • Драйв / Drive (Николас Виндинг Рёфн, боевик, триллер, драма, криминал, 2011 ...
  • Профессионал / Killer Elite (Гэри МакКендри, боевик, 2011) [BDRip-AVC, Проф ...
  • Отряд особого назначения / Forces speciales ( Стефан Рибожа, боевик, драма, ...
  • Отряд особого назначения / Forces spéciales (Стефан Рибожа, Боевик, 2011) [ ...
  • Отряд особого назначения / Forces spéciales (Стефан Рибожа, Боевик, 2011) [ ...
  • Отряд особого назначения / Forces speciales ( Стефан Рибожа, боевик, драма, ...
  • Свадебный разгром / A Few Best Men (Стефан Эллиотт, комедия, 2011) [BDRip-A ...
  • Отряд особого назначения / Special forces / Forces speciales (Стефан Рибожа ...
  • Приключения Тинтина: Тайна Единорога / The Adventures of Tintin (Стивен Спи ...
  • Заражение / Contagion (Стивен Содерберг, Фантастика, 2011) [BDRip 1080p, Пр ...
  • Переростки / The Inbetweeners (Бен Палмер / Ben Palmer, комедия, 2011) [BDR ...
  • Отряд особого назначения / Forces speciales ( Стефан Рибожа, боевик, драма, ...
  • Стыд / Shame (Стив МакКуин, драма, 2011) [BDRip 1080p, полное дублирование, ...
  • Петля времени / Looper (Райан Джонсон, Фантастика, боевик, триллер, кримина ...
  • Отряд особого назначения / Forces speciales ( Стефан Рибожа, боевик, драма, ...
  • Отряд особого назначения / Forces speciales (Стефан Рибожа, боевик, драма, ...
  • [iPhone, iPod, iPad]Отряд особого назначения / Forces speciales (Стефан Риб ...
  • Отряд особого назначения / Forces speciales (Стефан Рибожа, боевик, 2011) [ ...
  • Отряд особого назначения / Forces speciales ( Стефан Рибожа, боевик, драма, ...
  • Информация
    Посетители, находящиеся в группе Гости, не могут оставлять комментарии к данной публикации.