вход на сайт

Имя пользователя :
Пароль :

Восстановление пароля Регистрация
Мушкетеры / The Three Musketeers (Пол У. С. Андерсон, боевик, мелодрама, приключения, 2011) [BDRip-AVC, Дублированный]
Рейтинг:
(голосов: 1)



[img]{THEME}/images/logopost.png[/img]



Мушкетеры / The Three Musketeers
Cлоган: «Every legend has a new beginning.»

Год выпуска: 2011
Страна: США ,Франция, Германия, Великобритания
Производство: Constantin Film Produktion GmbH,Impact Pictures,New Legacy,Nouvelles Éditions de Films
Жанр: боевик, мелодрама, приключения

Режиссёр: Пол У. С. Андерсон
В ролях: Милла Йовович, Орландо Блум, Кристоф Вальц, Логан Лерман, Мэтью Макфейден, Рэй Стивенсон, Люк Эванс, Мадс Миккельсен, Габриэлла Уайлд, Тиль Швайгер

Перевод: Профессиональный (дублированный)
Субтитры: Отсутствуют

Описание: Молодой д’Артаньян покинул родной дом и отправился в Париж, надеясь на место в полку мушкетёров. По случайности в один день он обидел сразу троих мушкетёров — Атоса, Портоса и Арамиса — и получил от всех троих вызовы на дуэль.
Но дуэль была прервана появлением гвардейцев кардинала, которые хотели арестовать их за нарушение указа о запрете дуэлей. Д’Артаньян и три мушкетера победили превосходящего противника и стали друзьями. Теперь они должны остановить злобного Кардинала Ришелье и столкнутся с герцогом Бэкингемом, и предательницей Миледи Де Винтер.



Качество: BDRip-AVC
Продолжительность: 01:50:00

Формат: MKV
Видео кодек: x264
Аудио кодек: AC3
Видео: 1120x476 (2.35:1), 23.976 fps, AVC, 1499 kbps, 0.117 pit/pixel
Аудио: 48 kHz, AC3 Dolby Digital, 3/2 (L,C,R,l,r) + LFE ch, ~384 kbps

Media Info ▼General
Unique ID : 237863048224960334256695119459154774129 (0xB2F2C1B8A9750D2CBC2E701FB021C871)
Complete name : E:DownloadsMushketeri.chopper887.mkv
Format : Matroska
File size : 1.45 GiB
Duration : 1h 50mn
Overall bit rate : 1 884 Kbps
Movie name : Mushketeri.chopper887
Encoded date : UTC 2012-02-10 17:47:18
Writing application : mkvmerge v4.8.0 (I Got The...) сборка от May 24 2011 03:12:58
Writing library : libebml v1.2.0 + libmatroska v1.1.0

Video
ID : 1
Format : AVC
Format/Info : Advanced Video Codec
Format profile : [email protected]
Format settings, CABAC : Yes
Format settings, ReFrames : 10 frames
Codec ID : V_MPEG4/ISO/AVC
Duration : 1h 50mn
Bit rate : 1 499 Kbps
Width : 1 120 pixels
Height : 476 pixels
Display aspect ratio : 2.35:1
Frame rate : 23.976 fps
Color space : YUV
Chroma subsampling : 4:2:0
Bit depth : 8 bits
Scan type : Progressive
Bits/(Pixel*Frame) : 0.117
Stream size : 1.13 GiB (78%)
Title : Mushketeri.chopper887
Writing library : x264 core 120 r2146 bcd41db
Encoding settings : cabac=1 / ref=10 / deblock=1:-2:-1 / analyse=0x3:0x133 / me=umh / subme=11 / psy=1 / psy_rd=0.95:0.05 / mixed_ref=1 / me_range=32 / chroma_me=1 / trellis=2 / 8x8dct=1 / cqm=0 / deadzone=21,11 / fast_pskip=0 / chroma_qp_offset=-3 / threads=12 / sliced_threads=0 / nr=0 / decimate=1 / interlaced=0 / bluray_compat=0 / constrained_intra=0 / bframes=8 / b_pyramid=2 / b_adapt=2 / b_bias=0 / direct=3 / weightb=1 / open_gop=0 / weightp=2 / keyint=240 / keyint_min=23 / scenecut=40 / intra_refresh=0 / rc_lookahead=80 / rc=2pass / mbtree=1 / bitrate=1499 / ratetol=1.0 / qcomp=0.60 / qpmin=0 / qpmax=69 / qpstep=4 / cplxblur=20.0 / qblur=0.5 / ip_ratio=1.40 / aq=1:1.00
Language : English

Audio
ID : 2
Format : AC-3
Format/Info : Audio Coding 3
Mode extension : CM (complete main)
Codec ID : A_AC3
Duration : 1h 50mn
Bit rate mode : Constant
Bit rate : 384 Kbps
Channel(s) : 6 channels
Channel positions : Front: L C R, Side: L R, LFE
Sampling rate : 48.0 KHz
Bit depth : 16 bits
Compression mode : Lossy
Stream size : 304 MiB (20%)
Title : Dub

Наши рипы / Набор в РГ/Стол заказов РГ / Стол заказов по РИПам


ac85e3eef5424284af0fe4c422d4a70ba3b26dc9Мушкетеры / The Three Musketeers (Пол У. С. Андерсон, боевик, мелодрама, приключения, 2011) [BDRip-AVC, Дублированный] Мушкетеры / The Three Musketeers (Пол У. С. Андерсон, боевик, мелодрама, приключения, 2011) [BDRip-AVC, Дублированный] " />

Аплоадер: Админ, дата: 11-02-2012, 19:52, торрент скачан: 359 раз

Понравилась раздача? Посмотрите эти:
  • Аноним / Anonymous (Роланд Эммерих, триллер, драма, 2011) [BDRip-AVC, Профе ...
  • Соблазнитель / Kokowaah (Тиль Швайгер, мелодрама, комедия, 2010) [BDRip-AVC ...
  • Мушкетеры / The Three Musketeers (Пол У. С. Андерсон / Paul W.S. Anderson, ...
  • Голодный кролик атакует / Seeking Justice (Роджер Дональдсон, боевик, 2011) ...
  • Голодный кролик атакует / Seeking Justice (Роджер Дональдсон / Roger Donald ...
  • Мушкетеры / The Three Musketeers (Пол У. С. Андерсон, Боевик, 2011) [BDRip ...
  • Хранитель времени / Hugo (Мартин Скорсезе, Драма, 2011) [BDRip-AVC, Професс ...
  • Похищенная / A Lonely Place to Die (Джулиан Джилби, триллер, криминал, прик ...
  • Курьер / The Courier (Хани Абу-Ассад, боевик, триллер, криминал, 2011) [HDR ...
  • Мушкетеры / The Three Musketeers (Пол У. С. Андерсон, боевик, мелодрама, пр ...
  • [3D] Мушкетеры / The Three Musketeers 3D (Пол У. С. Андерсон / Paul W.S. A ...
  • [3D] Мушкетеры 3D / The Three Musketeers 3D (Пол У. С. Андерсон, Боевик, 20 ...
  • [3D] Мушкетеры 3D / The Three Musketeers 3D (Пол У. С. Андерсон, Боевик, 20 ...
  • Мушкетеры / The Three Musketeers (Пол У. С. Андерсон, Боевик, 2011) [BDRip ...
  • Мушкетеры / The Three Musketeers (Пол У. С. Андерсон, Боевик, 2011) [BDRip ...
  • Ворон / The Raven (Джеймс МакТиг, Триллер, детектив, 2012) [BDRip 720p, Дуб ...
  • Mylene Farmer / Du Temps [2011, Pop, HDTVRip]
  • Mylene Farmer / Bleu Noir [2011, Pop, HDTVRip]
  • Мушкетеры / The Three Musketeers (Пол У. С. Андерсон, боевик, мелодрама, пр ...
  • Мушкетеры / The Three Musketeers (Пол У. С. Андерсон, боевик, приключения, ...
  • Мушкетеры / The Three Musketeers (Пол У. С. Андерсон, боевик, приключения, ...
  • [iPhone, iPod] Мушкетеры / The Three Musketeers (Пол У. С. Андерсон / Paul ...
  • [3D] Мушкетеры 3D / The Three Musketeers 3D (Пол У. С. Андерсон, Боевик, 20 ...
  • Мушкетеры / The Three Musketeers (Пол У. С. Андерсон, боевик, мелодрама, пр ...
  • Мушкетеры / The Three Musketeers (Пол У. С. Андерсон, боевик, мелодрама, пр ...
  • Информация
    Посетители, находящиеся в группе Гости, не могут оставлять комментарии к данной публикации.