вход на сайт

Имя пользователя :
Пароль :

Восстановление пароля Регистрация
Профессионал / Killer Elite (Гэри МакКендри, боевик, 2011) [BDRip-AVC, Профессиональный (Полное дублирование), оригинал]
Рейтинг:
(голосов: 1)



[img]{THEME}/images/logopost.png[/img]



Профессионал / Killer Elite

Год выпуска: 2011
Страна: США , Австралия
Производство: Omnilab Media, Ambience Entertainment, Current Entertainment, International Traders, Palomar Pictures (II)
Жанр: боевик, триллер, криминал

Режиссёр: Гэри МакКендри
В ролях: Джейсон Стэтхэм, Клайв Оуэн, Роберт Де Ниро, Ивонн Страховски, Доминик Пурселл, Адевале Акиннуойе-Агбадже, Майкл Дорман, Грант Боулер, Бен Мендельсон, Кристи Барнс Каллен

Перевод: Профессиональный (полное дублирование) + Оригинальная звуковая дорожка
Субтитры: Русские, Английские

Описание: Дэнни Брайс — бывший наемный убийца международного уровня. Но спустя год спокойной жизни он получает сообщение от посредника, из которого узнает, что его бывший напарник взят в заложники арабским шейхом. Теперь Дэнни обязан убить отставных бойцов элитного спецподразделения SAS, чтобы вызволить приятеля из темницы шейха.



Релиз от -
Автор рипа: Sky™

"MediaInfo" ▼Полное имя : Professional.2011.BDRip-AVC.H264.AC3.-HQCLUB.mkv
Формат : Matroska
Версия формата : Version 2
Размер файла : 2,89 Гбайт
Продолжительность : 1 ч. 56 м.
Общий поток : 3550 Кбит/сек
Дата кодирования : UTC 2012-01-07 10:47:24
Программа кодирования : mkvmerge v5.2.1 (A Far Off Place) built on Jan 2 2012 23:21:10
Библиотека кодирования : libebml v1.2.3 + libmatroska v1.3.0

Видео
Идентификатор : 1
Формат : AVC
Формат/Информация : Advanced Video Codec
Профиль формата : [email protected]
Параметр CABAC формата : Да
Параметр ReFrames формата : 9 кадров
Идентификатор кодека : V_MPEG4/ISO/AVC
Продолжительность : 1 ч. 56 м.
Битрейт : 2657 Кбит/сек
Ширина : 1036 пикселей
Высота : 430 пикселей
Соотношение сторон : 2,40:1
Частота кадров : 23,976 кадра/сек
Цветовое пространство : YUV
Субдискретизация насыщенности : 4:2:0
Битовая глубина : 8 бит
Тип развёртки : Прогрессивная
Бит/(Пиксели*Кадры) : 0.249
Размер потока : 2,11 Гбайт (73%)
Заголовок : Профессионал / Killer Elite (2011) BDRip-AVC by Sky™ | HQCLUB
Библиотека кодирования : x264 core 116 r2074 2641b9e
Настройки программы : cabac=1 / ref=9 / deblock=1:-3:-3 / analyse=0x3:0x113 / me=umh / subme=10 / psy=1 / psy_rd=1.00:0.00 / mixed_ref=1 / me_range=32 / chroma_me=1 / trellis=2 / 8x8dct=1 / cqm=0 / deadzone=21,11 / fast_pskip=1 / chroma_qp_offset=-2 / threads=3 / sliced_threads=0 / nr=0 / decimate=1 / interlaced=0 / bluray_compat=0 / constrained_intra=0 / bframes=9 / b_pyramid=2 / b_adapt=2 / b_bias=0 / direct=1 / weightb=1 / open_gop=0 / weightp=2 / keyint=250 / keyint_min=23 / scenecut=40 / intra_refresh=0 / rc=2pass / mbtree=0 / bitrate=2657 / ratetol=1.0 / qcomp=0.60 / qpmin=10 / qpmax=51 / qpstep=4 / cplxblur=20.0 / qblur=0.5 / ip_ratio=1.40 / pb_ratio=1.30 / aq=1:0.90
Язык : English

Аудио #1
Идентификатор : 2
Формат : AC-3
Формат/Информация : Audio Coding 3
Расширение режима : CM (complete main)
Идентификатор кодека : A_AC3
Продолжительность : 1 ч. 56 м.
Вид битрейта : Постоянный
Битрейт : 448 Кбит/сек
Каналы : 6 каналов
Расположение каналов : Front: L C R, Side: L R, LFE
Частота : 48,0 КГц
Битовая глубина : 16 бит
Метод сжатия : С потерями
Размер потока : 374 Мбайт (13%)
Заголовок : Дубляж (R5) AC3 5.1 @ 448 kbps
Язык : Russian

Аудио #2
Идентификатор : 3
Формат : AC-3
Формат/Информация : Audio Coding 3
Расширение режима : CM (complete main)
Режим смешивания : Header stripping
Идентификатор кодека : A_AC3
Продолжительность : 1 ч. 56 м.
Вид битрейта : Постоянный
Битрейт : 448 Кбит/сек
Каналы : 6 каналов
Расположение каналов : Front: L C R, Side: L R, LFE
Частота : 48,0 КГц
Битовая глубина : 16 бит
Метод сжатия : С потерями
Размер потока : 374 Мбайт (13%)
Заголовок : Оригинал AC3 5.1 @ 448 kbps
Язык : English

Текст #1
Идентификатор : 4
Формат : UTF-8
Идентификатор кодека : S_TEXT/UTF8
Идентификатор кодека/Информация : UTF-8 Plain Text
Заголовок : Полные
Язык : Russian

Текст #2
Идентификатор : 5
Формат : UTF-8
Идентификатор
b07add54a3fec2802eb423fb44fcb67cde694502Профессионал / Killer Elite (Гэри МакКендри, боевик, 2011) [BDRip-AVC, Профессиональный (Полное дублирование), оригинал] Профессионал / Killer Elite (Гэри МакКендри, боевик, 2011) [BDRip-AVC, Профессиональный (Полное дублирование), оригинал] " />

Аплоадер: Админ, дата: 8-01-2012, 01:58, торрент скачан: 359 раз

Понравилась раздача? Посмотрите эти:
  • Война миров Z / World War Z [Theatrical Cut] (Марк Форстер, ужасы, фантасти ...
  • Исходный код / Source Code (Дункан Джонс, фантастика, боевик, триллер, драм ...
  • Профессионал / Killer Elite (Гэри МакКендри, Боевик, триллер, криминал, 201 ...
  • Рикошет / Ricochet (Ник Гомез, драма, детектив, 2011) [BDRip-AVC, Профессио ...
  • Даю год / I Give It a Year (Дэн Мазер, мелодрама, комедия, 2012) [BDRip-AVC ...
  • Паркер / Parker (Тейлор Хэкфорд, Боевик, триллер, криминал, 2013) [BDRip-AV ...
  • Профессионал / Killer Elite (Гэри МакКендри , боевик, триллер, криминал, 20 ...
  • Драйв / Drive (Николас Виндинг Рёфн, боевик, триллер, драма, криминал, 2011 ...
  • Профессионал / Killer Elite (Гэри МакКендри , боевик, триллер, криминал, 20 ...
  • Люди Икс: Первый класс / X-Men: First Class (Мэттью Вон / Matthew Vaughn, ф ...
  • Защитник / Safe (Боаз Якин / Boaz Yakin, боевик, криминал, 2012) [BDRip-AVC ...
  • Морской бой / Battleship (Питер Берг, фантастика, боевик, триллер, приключе ...
  • Профессионал / Killer Elite (Гэри МакКендри, боевик, триллер, криминал, 201 ...
  • Профессионал / Killer Elite (Гэри МакКендри, Боевик, Триллер, Криминал, 201 ...
  • Павшая империя / Hirokin (Алехо Мо-Сан, фантастика, боевик, драма, приключе ...
  • Петля времени / Looper (Райан Джонсон, Фантастика, боевик, триллер, кримина ...
  • Профессионал / Killer Elite (Гэри МакКендри, боевик, триллер, криминал, 201 ...
  • Профессионал / Killer Elite (Гэри МакКендри , боевик, триллер, криминал, 20 ...
  • Профессионал / Killer Elite (Гэри МакКендри, боевик, триллер, криминал, 201 ...
  • [iPhone, iPod, iPad]Профессионал / Killer Elite (Гэри МакКендри / Gary McKe ...
  • Профессионал / Killer Elite (Гэри МакКендри , боевик, триллер, криминал, 20 ...
  • Профессионал / Killer Elite (Гэри МакКендри, боевик, триллер, криминал, 201 ...
  • Профессионал / Killer Elite (Гэри МакКендри / Gary McKendry, боевик, трилле ...
  • Профессионал / Killer Elite (Гэри МакКендри, боевик, триллер, криминал, 201 ...
  • Профессионал / Killer Elite (Гэри МакКендри / Gary McKendry, боевик, трилле ...
  • Информация
    Посетители, находящиеся в группе Гости, не могут оставлять комментарии к данной публикации.