вход на сайт

Имя пользователя :
Пароль :

Восстановление пароля Регистрация
Погоня / Abduction (Джон Синглтон, боевик, триллер, драма, детектив, 2011) [HDRip-AVC, Профессиональный (дублированный) + Оригинал]
Рейтинг:
(голосов: 1)



[img]{THEME}/images/logopost.png[/img]



Погоня / Abduction
«Сражаясь за правду, он борется за жизнь»

Год выпуска: 2011
Страна: США
Производство: Lionsgate
Жанр: боевик, триллер, драма, детектив

Режиссёр: Джон Синглтон
В ролях: Тэйлор Лотнер, Лили Коллинз, Джейсон Айзекс, Альфред Молина, Сигурни Уивер, Мария Белло, Антоник Смит, Микаэл Нюквист, Дэнзел Уитакер, Джейк Андолина

Перевод: Профессиональный (дублированный) + Оригинал
Субтитры: Отсутствуют

Описание: Главный герой в один прекрасный день обнаруживает на сайте по розыску пропавших детей собственное фото. Отойдя от шока, он понимает, что родители похитили его и вырастили как собственного ребенка. Юноша начинает расследование, которое, в итоге, превращается в цепь жестоких и местами смертельно опасных событий.


Дата премьеры (мир): 23 августа 2011
Дата премьеры (РФ): 22 сентября 2011, «West»
Качество: HDRip-AVC
Продолжительность: 01:45:59

Формат: MKV
Видео кодек: x264
Аудио кодек: AC3 Dolby Digital
Видео: 960x400 (2,40:1), 23,976 fps, x264 ~1652 kbps avg, 0.179 bit/pixel
Аудио #1: 48 kHz, AC3 Dolby Digital, 3/2 (L,C,R,l,r) + LFE ch, ~448 kbps | Профессиональный (дублированный)
Аудио #2: 48 kHz, AC3 Dolby Digital, 2 channel (Front: L R), ~192 kbps | Оригинал

MediaInfo ▼TextОбщее
Уникальный идентификатор : 184677495752371036295644534924254241414 (0x8AEF9787921570B98A349E200B3DE286)
Полное имя : C:Documents and SettingsAdministratorDesktopPogonya.2011.D.HDRip.x264.potroks.mkv
Формат : Matroska
Версия формата : Version 2
Размер файла : 1,70 Гбайт
Продолжительность : 1 ч. 45 м.
Общий поток : 2292 Кбит/сек
Название фильма : -=POTROKS=-
Дата кодирования : UTC 2011-12-25 19:41:10
Программа кодирования : mkvmerge v5.0.1 (Es ist Sommer) built on Oct 9 2011 11:55:43
Библиотека кодирования : libebml v1.2.2 + libmatroska v1.3.0

Видео
Идентификатор : 1
Формат : AVC
Формат/Информация : Advanced Video Codec
Профиль формата : [email protected]
Параметр CABAC формата : Да
Параметр ReFrames формата : 9 кадров
Идентификатор кодека : V_MPEG4/ISO/AVC
Продолжительность : 1 ч. 45 м.
Битрейт : 1652 Кбит/сек
Ширина : 960 пикселей
Высота : 400 пикселей
Соотношение сторон : 2,40:1
Соотношение сторон в оригинале : 2,40:1
Режим частоты кадров : Переменный
Частота кадров : 23,976 кадра/сек
Цветовое пространство : YUV
Субдискретизация насыщенности : 4:2:0
Битовая глубина : 8 бит
Тип развёртки : Прогрессивная
Бит/(Пиксели*Кадры) : 0.179
Размер потока : 1,19 Гбайт (70%)
Заголовок : Pogonya.2011.HDRip.x264.potroks
Библиотека кодирования : x264 core 116 r2019M 9cc407d
Настройки программы : cabac=1 / ref=10 / deblock=1:-2:-1 / analyse=0x3:0x133 / me=umh / subme=9 / psy=1 / psy_rd=1.00:0.15 / mixed_ref=1 / me_range=42 / chroma_me=1 / trellis=1 / 8x8dct=1 / cqm=0 / deadzone=21,11 / fast_pskip=0 / chroma_qp_offset=-3 / threads=8 / sliced_threads=0 / nr=0 / decimate=1 / interlaced=0 / bluray_compat=0 / constrained_intra=0 / bframes=8 / b_pyramid=1 / b_adapt=2 / b_bias=0 / direct=3 / weightb=1 / open_gop=0 / weightp=2 / keyint=230 / keyint_min=23 / scenecut=40 / intra_refresh=0 / rc_lookahead=40 / rc=2pass / mbtree=1 / bitrate=1652 / ratetol=1.0 / qcomp=0.60 / qpmin=10 / qpmax=51 / qpstep=4 / cplxblur=20.0 / qblur=0.5 / ip_ratio=1.35 / aq=1:1.20
Язык : English
Default : Да
Forced : Нет

Аудио #1
Идентификатор : 2
Формат : AC-3
Формат/Информация : Audio Coding 3
Расширение режима : CM (complete main)
Идентификатор кодека : A_AC3
Продолжительность : 1 ч. 45 м.
Вид битрейта : Постоянный
Битрейт : 448 Кбит/сек
Каналы : 6 каналов
Расположение каналов : Front: L C R, Side: L R, LFE
Частота : 48,0 КГц
Битовая глубина : 16 бит
Метод сжатия : С потерями
Размер потока : 340 Мбайт (20%)
Заголовок : DUB
Язык : Russian
Default : Да
Forced : Да

Аудио #2
Идентификатор : 3
Формат : AC-3
Формат/Информация : Audio Coding 3
Расширение режима : CM (complete main)
Идентификатор кодека : A_AC3
Продолжительность : 1 ч. 45 м.
Вид битрейта : Постоянный
Битрейт
7bd64fa4647e33f9d84003e53bf48c0d114b6b22Погоня / Abduction (Джон Синглтон, боевик, триллер, драма, детектив, 2011) [HDRip-AVC, Профессиональный (дублированный) + Оригинал] Погоня / Abduction (Джон Синглтон, боевик, триллер, драма, детектив, 2011) [HDRip-AVC, Профессиональный (дублированный) + Оригинал] " />

Аплоадер: Админ, дата: 26-12-2011, 19:21, торрент скачан: 359 раз

Понравилась раздача? Посмотрите эти:
  • Одноклассники 2 / Grown Ups 2 (Деннис Дуган, Комедия, 2013) [BDRip-AVC, Про ...
  • Византия / Byzantium (Нил Джордан, Фэнтези, триллер, драма, 2012) [BDRip 10 ...
  • Никто не выжил / No One Lives (Рюхэй Китамура, Триллер, ужасы, 2012) [BDRip ...
  • Летучий отряд Скотланд-Ярда / The Sweeney (Ник Лав, Боевик, драма, криминал ...
  • Порочные игры / Stoker (Пак Чхан Ук, Триллер, драма, детектив, 2013) [BDRip ...
  • Порочные игры / Stoker (Пак Чхан Ук, Триллер, драма, детектив, 2013) [BDRip ...
  • Фантомы / Shutter (Масаюки Очиай, ужасы, триллер, детектив, 2008) [BDRip-AV ...
  • Рикошет / Ricochet (Ник Гомез, драма, детектив, 2011) [BDRip-AVC, Профессио ...
  • Перелом / Fracture (Грегори Хоблит, Триллер, драма, криминал, детектив, 200 ...
  • Ворон / The Raven (Джеймс МакТиг, Триллер, детектив, 2012) [BDRip 1080p, Ду ...
  • Погоня / Abduction (Джон Синглтон, боевик, триллер, драма, детектив, 2011) ...
  • Бульвар спасения / Salvation Boulevard (Джордж Рэтлифф, боевик, триллер, др ...
  • Главное - не бояться! / A Little Bit of Heaven (Николь Кэссел / Nicole Kass ...
  • Погоня / Abduction (Джон Синглтон, боевик, триллер, драма, детектив, 2011) ...
  • Погоня / Abduction (Джон Синглтон, Боевик, 2011) [BDRip - AVC, Дубляж + Ори ...
  • Иностранный легион / La cité (Ким Нгуйен / Kim Nguyen, драма, 2010) [DVDRip ...
  • Драйв / Drive (Николас Виндинг Рёфн, боевик, триллер, драма, криминал, 2011 ...
  • Погоня / Abduction (Джон Синглтон, боевик, триллер, драма, детектив,2011) [ ...
  • Погоня / Abduction (Джон Синглтон, боевик, триллер, драма, детектив,2011) [ ...
  • Заражение / Contagion (Стивен Содерберг, Фантастика, 2011) [BDRip 1080p, Пр ...
  • Погоня / Abduction (Джон Синглтон, боевик, триллер, драма, детектив, 2011) ...
  • Погоня / Abduction (Джон Синглтон, боевик, триллер, драма, детектив, 2011) ...
  • Погоня / Abduction (Джон Синглтон, боевик, триллер, драма, детектив, 2011) ...
  • Погоня / Abduction (Джон Синглтон, боевик, триллер, драма, детектив, 2011г) ...
  • Погоня / Abduction (Джон Синглтон, боевик, триллер, драма, детектив, 2011) ...
  • Информация
    Посетители, находящиеся в группе Гости, не могут оставлять комментарии к данной публикации.