вход на сайт

Имя пользователя :
Пароль :

Восстановление пароля Регистрация
Коломбиана / Colombiana (Оливье Мегатон, боевик, триллер, драма, приключения, 2011) [BDRip-AVC, Профессиональный (дублированный)]
Рейтинг:
(голосов: 1)



[img]{THEME}/images/logopost.png[/img]



Коломбиана / Colombiana
Cлоган: «Месть бывает прекрасна»

Год выпуска: 2011
Страна: США ,Франция
Производство: Europa Corp., TF1 Films Production, Grive Productions
Жанр: боевик, триллер, драма, приключения

Режиссёр: Оливье Мегатон
В ролях: Зои Салдана, Амендла Стенберг, Майкл Вартан, Клифф Кёртис, Каллум Блу, Жорди Молья, Макс Мартини, Ленни Джеймс, Грэм МакТавиш, Моника Акоста

Перевод: Профессиональный (дублированный) [лицензия]
Субтитры: Отсутствуют

Описание: Кат было всего десять, когда на ее глазах неизвестные жестоко убили ее родителей. Девочка сумела убежать от бандитов и найти убежище в Чикаго у своего дяди. Теперь Кат профессиональный убийца. Во что бы то ни стало она должна распутать клубок давнего преступления и отомстить за смерть родителей. Все следы ведут к колумбийскому наркобарону Дону Лусиа. Единственная нить, соединяющая девушку-убийцу с миром обычных людей — это ее возлюбленный, который не догадывается, чем на самом деле занимается его подружка…



Качество: BDRip-AVC
Продолжительность: 01:43:27

Формат: MKV
Видео кодек: x264
Аудио кодек: AC3
Видео: 1040x442 (2.35:1), 23.976 fps,~1564 kbps avg, 0.136 bit/pixel
Аудио: 48 kHz, AC3 Dolby Digital, 3/2 (L,C,R,l,r) + LFE ch, ~448 kbps

Дата премьеры (мир): 27 июля 2011
Дата премьеры (РФ): 8 сентября 2011, «Парадиз»
релиз на Blu-Ray: 22 декабря 2011, «Парадиз Видео»
релиз на DVD: 22 декабря 2011, «Парадиз Видео»

MediaInfo ▼TextGeneral
Unique ID : 205570670050646569098053724152529933084 (0x9AA7788DCF062B7198B3F617FF4FD31C)
Complete name : D:DоwnloadsColombiana.2011.BDRip-AVC.mkv
Format : Matroska
File size : 1.45 GiB
Duration : 1h 43mn
Overall bit rate : 2 013 Kbps
Movie name : Colombiana.chopper887
Encoded date : UTC 2011-12-15 18:16:00
Writing application : mkvmerge v4.8.0 (I Got The...) сборка от May 24 2011 03:12:58
Writing library : libebml v1.2.0 + libmatroska v1.1.0

Video
ID : 1
Format : AVC
Format/Info : Advanced Video Codec
Format profile : [email protected]
Format settings, CABAC : Yes
Format settings, ReFrames : 6 frames
Codec ID : V_MPEG4/ISO/AVC
Duration : 1h 43mn
Bit rate : 1 564 Kbps
Width : 1 040 pixels
Height : 442 pixels
Display aspect ratio : 2.35:1
Frame rate : 25.000 fps
Color space : YUV
Chroma subsampling : 4:2:0
Bit depth : 8 bits
Scan type : Progressive
Bits/(Pixel*Frame) : 0.136
Stream size : 1.10 GiB (76%)
Title : Colombiana.chopper887
Writing library : x264 core 116 r2074 2641b9e
Encoding settings : cabac=1 / ref=6 / deblock=1:-2:-1 / analyse=0x3:0x133 / me=umh / subme=11 / psy=1 / psy_rd=1.00:0.10 / mixed_ref=1 / me_range=32 / chroma_me=1 / trellis=2 / 8x8dct=1 / cqm=0 / deadzone=21,11 / fast_pskip=0 / chroma_qp_offset=-3 / threads=12 / sliced_threads=0 / nr=0 / decimate=1 / interlaced=0 / bluray_compat=0 / constrained_intra=0 / bframes=8 / b_pyramid=2 / b_adapt=2 / b_bias=0 / direct=3 / weightb=1 / open_gop=0 / weightp=2 / keyint=250 / keyint_min=25 / scenecut=40 / intra_refresh=0 / rc_lookahead=80 / rc=2pass / mbtree=1 / bitrate=1564 / ratetol=1.0 / qcomp=0.60 / qpmin=10 / qpmax=51 / qpstep=4 / cplxblur=20.0 / qblur=0.5 / ip_ratio=1.40 / aq=1:1.00
Language : English

Audio
ID : 2
Format : AC-3
Format/Info : Audio Coding 3
Mode extension : CM (complete main)
Codec ID : A_AC3
Duration : 1h 43mn
Bit rate mode : Constant
Bit rate : 448 Kbps
Channel(s) : 6 channels
Channel positions : Front: L C R, Side: L R, LFE
Sampling rate : 48.0 KHz
Bit depth : 16 bits
Compression mode : Lossy
Stream size : 332 MiB (22%)
Title : Дубляж

Наши рипы / Набор в РГ/Стол заказов РГ / Стол заказов по РИПам


2902d2788fff62506aa1e761707c1458f000a841Коломбиана / Colombiana (Оливье Мегатон, боевик, триллер, драма, приключения, 2011) [BDRip-AVC, Профессиональный (дублированный)] Коломбиана / Colombiana (Оливье Мегатон, боевик, триллер, драма, приключения, 2011) [BDRip-AVC, Профессиональный (дублированный)] " />

Аплоадер: Админ, дата: 16-12-2011, 23:58, торрент скачан: 359 раз

Понравилась раздача? Посмотрите эти:
  • Коломбиана [Расширенная версия] / Colombiana [Unrated Cut] (Оливье Мегатон, ...
  • Заложница 2 [Театральная версия] / Taken 2 [Theatrical Cut] (Оливье Мегатон ...
  • Заложница 2 [Театральная версия] / Taken 2 [Theatrical Cut] (Оливье Мегатон ...
  • Убить по расписанию / Ticking Clock (Эрни Барбараш, фантастика, боевик, три ...
  • Коломбиана / Colombiana (Оливье Мегатон, боевик, триллер, драма, приключени ...
  • Аноним / Anonymous (Роланд Эммерих, триллер, драма, 2011) [BDRip-AVC, Профе ...
  • Голодный кролик атакует / Seeking Justice (Роджер Дональдсон, боевик, 2011) ...
  • Голодный кролик атакует / Seeking Justice (Роджер Дональдсон / Roger Donald ...
  • Хранитель времени / Hugo (Мартин Скорсезе, Драма, 2011) [BDRip-AVC, Професс ...
  • Коломбиана / Colombiana (Оливье Мегатон, боевик, триллер, драма, приключени ...
  • Коломбиана [Театральная версия] / Colombiana [Theatrical Cut] (Оливье Мегат ...
  • Неизвестный / Unknown (Жауме Серра / Jaume Collet-Serra, триллер, драма, де ...
  • Коломбиана [Расширенная версия] / Colombiana [UNRATED] (Оливье Мегатон, Бое ...
  • Коломбиана / Colombiana [UNRATED] (Оливье Мегатон, боевик, триллер, драма, ...
  • Исходный код / Source Code (Дункан Джонс, фантастика, боевик, триллер, 2011 ...
  • Профессионал / Killer Elite (Гэри МакКендри, Боевик, Триллер, Криминал, 201 ...
  • Коломбиана [Расширенная версия] / Colombiana [Unrated Cut] (Оливье Мегатон, ...
  • Mylene Farmer / Du Temps [2011, Pop, HDTVRip]
  • Mylene Farmer / Bleu Noir [2011, Pop, HDTVRip]
  • Дом грёз / Dream House (Джим Шеридан / Jim Sheridan, триллер, драма, детект ...
  • Коломбиана / Colombiana (Оливье Мегатон, боевик, триллер, драма, приключени ...
  • Коломбиана / Colombiana (Оливье Мегатон, боевик, триллер, драма, приключени ...
  • Коломбиана / Colombiana (Оливье Мегатон, боевик, триллер, драма, криминал, ...
  • Коломбиана / Colombiana [Unrated] (Оливье Мегатон, боевик, триллер, драма, ...
  • Коломбиана / Colombiana[Unrated] (Оливье Мегатон, боевик, триллер, драма, п ...
  • Информация
    Посетители, находящиеся в группе Гости, не могут оставлять комментарии к данной публикации.