вход на сайт

Имя пользователя :
Пароль :

Восстановление пароля Регистрация
Макс Пэйн / Max Payne [Unrated] (Джон Мур, боевик, триллер, драма, криминал, детектив, 2008) [BDRip-AVC, Дубляж + оригинал]
Рейтинг:
(голосов: 1)



[img]{THEME}/images/logopost.png[/img]



Макс Пэйн / Max Payne

«Будьте осторожны! Полицейское ограждение! Проход запрещен!»

Год выпуска: 2008
Страна: США Канада
Производство: 20th Century Fox
Жанр: боевик, триллер, драма, криминал, детектив

Режиссёр: Джон Мур
В ролях: Марк Уолберг, Мила Кунис, Бо Бриджес, Ludacris, Крис О`Доннелл, Донал Лог, Амори Ноласко, Кейт Бёртон, Ольга Куриленко, Ротафорд Грэй


Перевод: Профессиональный (полное дублирование) + оригинал
Субтитры:русские (на надписи и полные), английские

Описание
Сотруднику Управления по борьбе с наркотиками не на что жаловаться. У него есть все: отличная работа, любящая жена и маленький ребенок. Словом, не жизнь, а американская мечта, которая однажды оборачивается самым страшным кошмаром: какой-то психопат убивает его семью.

Отныне у Макса только одна цель — отомстить. Но месть осложняется тем, что его несправедливо обвиняют в убийстве, и все, кому не лень, начинают на него охоту — Полицейское управление Нью-Йорка, уголовный мир и городские власти. Теперь ему уже действительно нечего терять и нечего опасаться. При такой отчаянной решимости только Макс Пэйн способен пролить свет на все тайны, связанные с уничтожением его семьи, и главное, получить удовлетворение от мести, которой он так жаждет.



Доп. информация

"MediaInfo" ▼TextОбщее
Уникальный идентификатор : 197154182491330084614567570795738042877 (0x945283ADE439D2BE89211172393211FD)
Полное имя : Maks.Pein.2008.DUAL.BDRip-AVC.h264.AC3.-HQCLUB.mkv
Формат : Matroska
Версия формата : Version 2
Размер файла : 2,35 Гбайт
Продолжительность : 1 ч. 42 м.
Общий поток : 3273 Кбит/сек
Дата кодирования : UTC 2011-09-14 15:13:33
Программа кодирования : mkvmerge v4.9.1 (Ich will) сборка от Jul 11 2011 23:53:15
Библиотека кодирования : libebml v1.2.1 + libmatroska v1.1.1

Видео
Идентификатор : 1
Формат : AVC
Формат/Информация : Advanced Video Codec
Профиль формата : [email protected]
Параметр CABAC формата : Да
Параметр ReFrames формата : 8 кадров
Режим смешивания : Header stripping
Идентификатор кодека : V_MPEG4/ISO/AVC
Продолжительность : 1 ч. 42 м.
Битрейт : 2376 Кбит/сек
Ширина : 1024 пикселя
Высота : 426 пикселей
Соотношение сторон : 2,40:1
Частота кадров : 23,976 кадра/сек
Цветовое пространство : YUV
Субдискретизация насыщенности : 4:2:0
Битовая глубина : 8 бит
Тип развёртки : Прогрессивная
Бит/(Пиксели*Кадры) : 0.227
Размер потока : 1,66 Гбайт (71%)
Заголовок : Rip by DenisNN
Библиотека кодирования : x264 core 116 r2074 2641b9e
Настройки программы : cabac=1 / ref=8 / deblock=1:1:1 / analyse=0x3:0x133 / me=umh / subme=10 / psy=1 / psy_rd=1.00:0.00 / mixed_ref=1 / me_range=32 / chroma_me=1 / trellis=2 / 8x8dct=1 / cqm=0 / deadzone=21,11 / fast_pskip=0 / chroma_qp_offset=3 / threads=3 / sliced_threads=0 / nr=0 / decimate=1 / interlaced=0 / bluray_compat=0 / constrained_intra=0 / bframes=7 / b_pyramid=2 / b_adapt=2 / b_bias=0 / direct=3 / weightb=1 / open_gop=0 / weightp=2 / keyint=250 / keyint_min=23 / scenecut=40 / intra_refresh=0 / rc=2pass / mbtree=0 / bitrate=2376 / ratetol=1.0 / qcomp=0.60 / qpmin=10 / qpmax=51 / qpstep=4 / cplxblur=20.0 / qblur=0.5 / ip_ratio=1.40 / pb_ratio=1.30 / aq=2:1.00
Язык : English

Аудио #1
Идентификатор : 2
Формат : AC-3
Формат/Информация : Audio Coding 3
Расширение режима : CM (complete main)
Режим смешивания : Header stripping
Идентификатор кодека : A_AC3
Продолжительность : 1 ч. 42 м.
Вид битрейта : Постоянный
Битрейт : 448 Кбит/сек
Каналы : 6 каналов
Расположение каналов : Front: L C R, Side: L R, LFE
Частота : 48,0 КГц
Битовая глубина : 16 бит
Метод сжатия : С потерями
Размер потока : 330 Мбайт (14%)
Заголовок : Дубляж
Язык : Russian

Аудио #2
Идентификатор : 3
Формат : AC-3
Формат/Информация : Audio Coding 3
Расширение режима : CM (complete main)
Режим смешивания : Header stripping
Идентификатор кодека : A_AC3
Продолжительность : 1 ч. 42 м.
Вид битрейта : Постоянный
Битрейт : 448 Кбит/сек
Каналы : 6 каналов
Расположение каналов : Front: L C R, Side: L R, LF
30510fc7e08442766378b7aa00dcd53c0bacadf2Макс Пэйн / Max Payne [Unrated] (Джон Мур, боевик, триллер, драма, криминал, детектив, 2008) [BDRip-AVC, Дубляж + оригинал] Макс Пэйн / Max Payne [Unrated] (Джон Мур, боевик, триллер, драма, криминал, детектив, 2008) [BDRip-AVC, Дубляж + оригинал] " />

Аплоадер: Админ, дата: 8-12-2011, 13:16, торрент скачан: 359 раз

Понравилась раздача? Посмотрите эти:
  • Погнали! / Getaway (Кортни Соломон, боевик, криминал, 2013) [BDRip 1080p, П ...
  • Погнали! / Getaway (Кортни Соломон, боевик, криминал, 2013) [BDRip-AVC, Про ...
  • Макс Пэйн / Max Payne (Джон Мур, боевик, триллер, драма, криминал, детектив ...
  • Макс Пэйн / Max Payne (Джон Мур, боевик, триллер, драма, криминал, детектив ...
  • Война миров Z / World War Z [Theatrical Cut] (Марк Форстер, ужасы, фантасти ...
  • Макс Пэйн / Max Payne [Unrated] (Джон Мур, боевик, триллер, драма, криминал ...
  • Макс Пэйн / Max Payne [UNRATED] (Джон Мур, боевик, триллер, драма, криминал ...
  • Перелом / Fracture (Грегори Хоблит, Триллер, драма, криминал, детектив, 200 ...
  • Ангелы Чарли / Charlies Angels (МакДжи, Боевик, триллер, комедия, криминал, ...
  • Макс Пэйн [Полная версия] / Max Payne [Unrated] (Джон Мур / боевик, триллер ...
  • Макс Пэйн / Max Payne [UNRATED] (Джон Мур, боевик, триллер, драма, криминал ...
  • Макс Пэйн / Max Payne [UNRATED] (Джон Мур, Боевик, триллер, драма, криминал ...
  • Макс Пэйн / Max Payne [Unrated] (Джон Мур, боевик, триллер, драма, криминал ...
  • Драйв / Drive (Николас Виндинг Рёфн, боевик, триллер, драма, криминал, 2011 ...
  • Профессионал / Killer Elite (Гэри МакКендри, боевик, 2011) [BDRip-AVC, Проф ...
  • Макс Пэйн / Max Payne / Theatrical Cut (Джон Мур, боевик, триллер, драма, к ...
  • Макс Пэйн / Max Payne (Джон Мур / John Moore, боевик, триллер, драма, крими ...
  • Невероятный Халк / The Incredible Hulk (Луи Летерье, фантастика, боевик, тр ...
  • Петля времени / Looper (Райан Джонсон, Фантастика, боевик, триллер, кримина ...
  • Макс Пэйн / Max Payne (Джон Мур, Боевик, Триллер, Драма, Криминал, Детектив ...
  • Макс Пэйн / Max Payne (Джон Мур, боевик, триллер, драма, криминал, 2008г) [ ...
  • Макс Пэйн / Max Payne (Расширенная версия) (Джон Мур, боевик, триллер, драм ...
  • Макс Пэйн / Max Payne (Джон Мур, Боевик, Триллер, Драма, Криминал, 2008) [B ...
  • Макс Пейн / Max Payne (Джон Мур, Боевик, 2008) [BDRip 720p, Профессиональны ...
  • Макс Пэйн / Max Payne (Джон Мур, Боевик, Триллер, Драма, Криминал, Детектив ...
  • Информация
    Посетители, находящиеся в группе Гости, не могут оставлять комментарии к данной публикации.