вход на сайт

Имя пользователя :
Пароль :

Восстановление пароля Регистрация
Плохой хороший полицейский / Bon Cop, Bad Cop (Эрик Кануэль, боевик, триллер, комедия, криминал, 2006) [HDRip, Дублированный] by Torrent Club
Рейтинг:
(голосов: 1)



[img]{THEME}/images/logopost.png[/img]



Плохой хороший полицейский / Bon Cop, Bad Cop

Слоган "Shoot First Translate Later"

Год выпуска: 2006
Страна: Канада
Производство: Alliance Atlantis Communications Inc.
Жанр: боевик, триллер, комедия, криминал

Режиссёр: Эрик Кануэль
В ролях: Мишель Бодри, Патрис Беланже, Пьер Бодро, Сарэн Бойлэн, Мэнон Брюнелль, Николас Кануэль, Хьюголин Шевре-Ландеск, Файолль Жан, Колм Фиор, Рон Форнье

Перевод: Дублированный
Субтитры: отсутствуют

Описание:
Казалось бы, ну что может быть общего между двумя такими разными полицейскими, как Мартином Вардом — ярым поборником закона и Дэвидом Бучардом, весьма мастерски умеющим те же законы обходить? Но судьбе было угодно сделать их напарниками в расследовании серии жестоких убийств.

Начав следствие, они столкнулись с весьма необычной проблемой! Оказалось, что напарники далеко не всегда могут понять друг друга, потому что говорят на абсолютно разных языках! Мартину и Дэвиду придется изрядно поднапрячься, чтобы найти хоть какие-то точки соприкосновения. Но, как говорится, общее дело сближает…



Доп. информация:

Релиз от :
Премьера: ▼премьера (мир) 4 июля 2006, ...
премьера (РФ) 29 ноября 2007, «Lizard Cinema»

Тех. данные:
Качество: HDRip
Продолжительность: 01:56:35 час.

Формат: AVI
Видео кодек: XviD
Аудио кодек: MP3
Видео:688x288 (2.39:1), 23.976 fps, XviD build 50 ~756 kbps avg, 0.16 bit/pixel
Аудио: 48 kHz, MPEG Layer 3, 2 ch, ~128.00 kbps avg
"MediaInfo" ▼TextОбщее
Полное имя : C:UsersШапагатDownloadsPlohoj.horoshij.policejskij.2006.hdrip.by.torrent-club.avi
Формат : AVI
Формат/Информация : Audio Video Interleave
Размер файла : 746 Мбайт
Продолжительность : 1 ч. 56 м.
Общий поток : 894 Кбит/сек
Режиссёр : Rip by Torrent Club / Simple_guy
Программа кодирования : VirtualDubMod 1.5.10.3 | www.virtualdub-fr.org || (build 2550/release)

Видео
Идентификатор : 0
Формат : MPEG-4 Visual
Профиль формата : Advanced [email protected]
Параметр BVOP формата : 2
Параметр QPel формата : Нет
Параметр GMC формата : Без точки перехода
Параметр матрицы формата : Default (H.263)
Идентификатор кодека : XVID
Идентификатор кодека/Подсказка : XviD
Продолжительность : 1 ч. 56 м.
Битрейт : 757 Кбит/сек
Ширина : 688 пикс.
Высота : 288 пикс.
Соотношение сторон : 2,40:1
Частота кадров : 23,976 кадр/сек
Цветовое пространство : YUV
Подвыборка цветности : 4:2:0
Битовая глубина : 8 бит
Тип развёртки : Прогрессивная
Метод сжатия : С потерями
Бит/(Пиксели*Кадры) : 0.159
Размер потока : 631 Мбайт (85%)
Библиотека кодирования : XviD 1.2.1 (UTC 2008-12-04)

Аудио
Идентификатор : 1
Формат : MPEG Audio
Версия формата : Version 1
Профиль формата : Layer 3
Режим : Joint stereo
Расширение режима : MS Stereo
Идентификатор кодека : 55
Идентификатор кодека/Подсказка : MP3
Продолжительность : 1 ч. 56 м.
Вид битрейта : Постоянный
Битрейт : 128 Кбит/сек
Каналы : 2 канала
Частота : 48,0 КГц
Метод сжатия : С потерями
Размер потока : 107 Мбайт (14%)
Выравнивание : Соединение по промежуткам
Продолжительность промежутка : 42 мс. (1,00 видеокадр)
Время предзагрузки промежутка : 504 ms
Библиотека кодирования : LAME3.98r
Настройки программы : -m j -V 4 -q 2 -lowpass 17 -b 128



Раздача группы: Наши раздачи
Набор в группу




551dd894e1acf1b1764c3548b5db9d5b5f18236aПлохой хороший полицейский / Bon Cop, Bad Cop (Эрик Кануэль, боевик, триллер, комедия, криминал, 2006) [HDRip, Дублированный] by Torrent Club Плохой хороший полицейский / Bon Cop, Bad Cop (Эрик Кануэль, боевик, триллер, комедия, криминал, 2006) [HDRip, Дублированный] by Torrent Club " />

Аплоадер: Админ, дата: 13-07-2011, 20:51, торрент скачан: 359 раз

Понравилась раздача? Посмотрите эти:
  • Малавита / The Family (Люк Бессон, Криминал, комедия, боевик, 2013) [DVDRip ...
  • Грязная кампания за честные выборы / The Campaign (Джей Роуч , Комедия,201 ...
  • Жил-был тигр / Ek Tha Tiger (Кабир Кхан, боевик, триллер , 2012) [ HDRip, ...
  • Злые птицы: Хэллоуин / Angry Birds: HamOWeen (Джей Ройвайнен, Мультфильм, к ...
  • Бог любви / God of Love (Люк Мэзени, Короткометражка, фэнтези, комедия, мел ...
  • Любовь по расписанию / Поезд (Сергей Мезенцев, мелодрама, 2012) [HDTVRip, Н ...
  • Вечерний Ургант // Сезон 2. Выпуск 63 (ТВ-шоу, 20.12.2012) [SATRip, Не треб ...
  • Кейси Джонс / Casey Jones (Иларион Бэнкс, Короткометражка, фэнтези, боевик, ...
  • Заместитель / Il supplente (Андреа Жублин, Короткометражка, комедия, 2007) ...
  • Вечерний Ургант // Сезон 2. Выпуск 66 (ТВ-шоу, 25.12.2012) [SATRip, Не треб ...
  • Дорога на... / Road to (Таисия Игуменцева, Комедия, короткометражный, 2011) ...
  • Покорить высоту / Take It to the Limit (Сэм Кит / Sam Kieth, семейный, 2000 ...
  • Светлячок. Воссоединение Коричневых плащей к 10 годовщине / Firefly 10th An ...
  • А что насчет тебя? / How About You (Энтони Бирн, Драма, комедия, 2007) [DVD ...
  • Брат якудзы / Brother (Такеши Китано, триллер, драма, криминал, 2000) [HDRi ...
  • Детский душ / Baby Shower (Pablo Illanes, Ужасы, 2011) [DVDRip, Любительски ...
  • Дикая штучка / Wild Target (Джонатан Линн, боевик, драма, комедия, криминал ...
  • Привет, Джули! / Flipped (Роб Райнер, драма, мелодрама, комедия , 2010) [HD ...
  • Часто задаваемые вопросы о путешествиях во времени / Frequently Asked Quest ...
  • Часто задаваемые вопросы о путешествиях во времени / Frequently Asked Quest ...
  • В лесу / The Forest (Шан Серафин, ужасы, триллер , 2011) [SATRip, Профессио ...
  • Пупупиду / Poupoupidou (Жеральд Юсташ-Матье, комедия, криминал, 2011) [DVDR ...
  • Челюсти 3D / Shark Night 3D (Дэвид Р. Эллис, ужасы, триллер, 2011) [HDRip, ...
  • Пожирая живых / Ночь зомби / Zombie Night (Дэвид Дж. Фрэнсис, Ужасы, комеди ...
  • Бюро находок : Потерянный и найденный / Lost and Found (Филип Хант, коротко ...
  • Информация
    Посетители, находящиеся в группе Гости, не могут оставлять комментарии к данной публикации.