вход на сайт

Имя пользователя :
Пароль :

Восстановление пароля Регистрация
Новые парни турбо / New Kids Turbo (Штефен Хаарс, Боевик, комедия, 2010) [HDRip, Любительский (одноголосый, закадровый)]
Рейтинг:
(голосов: 1)



[img]{THEME}/images/logopost.png[/img]



Новые парни турбо / New Kids Turbo

Год выпуска: 2010
Страна: Нидерланды
Производство: Eyeworks Film @ TV Drama and Comedy Central
Жанр: Боевик, комедия

Режиссёр: Штефен Хаарс
В ролях: Энтони Камерлинг, Николь Ван Нироп, Рейну Урлеманс, Штефен Хаарс, Хуб Смит

Перевод: Любительский (одноголосый, закадровый)
Озвучка: Vova-mnemic
Субтитры: нет

Описание: Пятерых друзей увольняют из компании ввиду экономического кризиса. И они решают что с этого момента,мир не получит от них больше ни копейки. Они придут к вам,чтобы забрать все!!!MediaInfo ▼General
Complete name : E:Рабочая папкаNew Kids Turbo.2010.XviD.HDRip.700MB.avi
Format : AVI
Format/Info : Audio Video Interleave
File size : 700 MiB
Duration : 1h 24mn
Overall bit rate : 1 154 Kbps
Writing application : VirtualDubMod 1.5.10.2 (build 2540/release)
Writing library : VirtualDubMod build 2540/release

Video
ID : 0
Format : MPEG-4 Visual
Format profile : Advanced [email protected]
Format settings, BVOP : Yes
Format settings, QPel : No
Format settings, GMC : No warppoints
Format settings, Matrix : Default (MPEG)
Codec ID : XVID
Codec ID/Hint : XviD
Duration : 1h 24mn
Bit rate : 1 017 Kbps
Width : 688 pixels
Height : 288 pixels
Display aspect ratio : 2.35:1
Frame rate : 24.000 fps
Color space : YUV
Chroma subsampling : 4:2:0
Bit depth : 8 bits
Scan type : Progressive
Bits/(Pixel*Frame) : 0.214
Stream size : 616 MiB (88%)
Writing library : XviD 1.2.1 (UTC 2008-12-04)

Audio
ID : 1
Format : MPEG Audio
Format version : Version 1
Format profile : Layer 3
Mode : Joint stereo
Mode extension : MS Stereo
Codec ID : 55
Codec ID/Hint : MP3
Duration : 1h 24mn
Bit rate mode : Constant
Bit rate : 128 Kbps
Channel(s) : 2 channels
Sampling rate : 48.0 KHz
Stream size : 77.6 MiB (11%)
Alignment : Aligned on interleaves
Interleave, duration : 42 ms (1.00 video frame)
Interleave, preload duration : 504 ms
Writing library : LAME3.98r
Encoding settings : -m j -V 4 -q 2 -lowpass 17 -b 128

Качество: HDRip
Продолжительность: 01:24:47

Формат: AVI
Видео кодек: XviD
Аудио кодек: MP3
Видео: XviD, 1017 Kbps, 688 х 288 pixels, 24.000 fps
Аудио: MPEG Layer 3, Joint stereo, 128 Kbps, 2 channels, 48.0 KHz




97822148a46335a3d8c9ac37770a88bd1fd91017Новые парни турбо / New Kids Turbo (Штефен Хаарс, Боевик, комедия, 2010) [HDRip, Любительский (одноголосый, закадровый)] Новые парни турбо / New Kids Turbo (Штефен Хаарс, Боевик, комедия, 2010) [HDRip, Любительский (одноголосый, закадровый)] " />

Аплоадер: Админ, дата: 3-06-2011, 15:03, торрент скачан: 359 раз

Понравилась раздача? Посмотрите эти:
  • Непристойная комедия / InAPPropriate Comedy (Винс Оффер, комедия, 2013) [DV ...
  • Погнали! / Getaway (Кортни Соломон, Боевик,Криминал, 2013) [HDRip, Професси ...
  • Посылка / The Package (Джесси Джонсон, боевик, 2013) [HDRip, Профессиональн ...
  • Посылка / The Package (Джесси Джонсон, боевик, 2013) [HDRip, Профессиональн ...
  • Турбо / Turbo (Дэвид Сорен, Мультфильм, комедия, приключения, семейный, спо ...
  • Спасти генерала Яна / Saving General Yang (Ронни Ю, Боевик, Триллер, 2013) ...
  • Мужество / Wymyk (Грег Зглински, драма, 2011) [DVDRip, Любительский (одного ...
  • 12 раундов: Перезагрузка / 12 Rounds: Reloaded (Роэль Рейн, Боевик, 2013) [ ...
  • Берлинское дело / The Berlin File (Рю Сын Ван, Боевик, триллер, драма, 2013 ...
  • 23:59 / 23:59 (Гилберт Чан, Ужасы, 2011) [HDRip, Любительский (одноголосый ...
  • Игра смерти / Game of death (Роберт Клауз, Саммо Хунг Кам-Бо, Брюс Ли, боев ...
  • Цель Номер Один / Zero Dark Thirty (Кэтрин Бигелоу, боевик, триллер, драма, ...
  • Скуби-Ду! Маска Синего Сокола / Scooby-Doo! Mask Of The Blue Falcon (Оливье ...
  • Псы войны / The Dogs of War (Джон Ирвин, боевик, драма, приключения, военны ...
  • Римские общественные бани / Terumae romae (Хидеки Такэути, фантастика, коме ...
  • Следопыт / Tracker (Йен Шарп, боевик, драма, приключения, 2010) [HDRip, Про ...
  • Вскрытие инопланетянина/Alien Autopsy (Джонни Кэмпбелл, Комедия, фантастика ...
  • Ева Польна / Парни не плачут [2010, Pop, TVRip]
  • Скуби-Ду: Нападение Пантазаура / Scooby-Doo! Legend of the Phantosaur (Дугл ...
  • Неприкасаемые / Intouchables (Оливье Накаш, Эрик Толедано, Драма, 2011) [BD ...
  • Мокрый коврик / Mortal Kombat (Пол У. С. Андерсон, Пародия, 1995) [DVDRip, ...
  • Романтики / The Romantics (Галт Нидерхоффер, Драма, мелодрама, комедия, 201 ...
  • Замёрзший мир / 2012: Ice Age (Трэвис Форт, фантастика, боевик, 2011) [HDRi ...
  • Ничего, кроме правды / Nothing But the Truth (Род Лури, триллер, драма, 200 ...
  • Обрезание / Excision (Ричард Бейтс мл., ужасы, драма, комедия,2012) [HDRip, ...
  • Информация
    Посетители, находящиеся в группе Гости, не могут оставлять комментарии к данной публикации.