вход на сайт

Имя пользователя :
Пароль :

Восстановление пароля Регистрация
Командир / Der Commander (Антонио Маргерити, боевик, военный, 1988) [DVDRip, Авторский (одноголосый, закадровый) А.Дольский]
Рейтинг:
(голосов: 1)



[img]{THEME}/images/logopost.png[/img]



Командир / Der Commander

Год выпуска: 1988
Страна: Италия, Германия
Производство: Ascot Film GmbH & Co., Prestige Film
Жанр: боевик, военный

Режиссёр: Антонио Маргерити
В ролях: Льюис Коллинз, Ли Ван Клиф, Дональд Плезенс, Манфред Леманн, Бретт Хэлси, Chat Silayan, Hans Leutenegger, Кристиан Брюкнер, Frank Glaubrecht, Thomas Danneberg

Перевод: Авторский (одноголосый, закадровый) А.Дольский
Субтитры: Отсутствуют

Описание:
Майор Колби (Льюис Коллинз) во главе группы наемников должен уничтожить крупнейший лагерь наркоторговцев в Золотом Треугольнике...


Дополнительно:
MediaInfo ▼Text
Общее
Полное имя :D:КомандирCommander.1988.avi
Формат :AVI
Размер :1.37 GiB
Продолжительность :01:40:30.040
Общий поток :1 950 Kbps
Программа кодирования :VirtualDubMod 1.5.10.3 | www.virtualdub-fr.org || (build 2550/release)

Видео
Идентификатор :0
Формат :MPEG-4 Visual
Профиль формата :Advanced [email protected]
Параметр BVOP формата :1
Параметр Qpel формата :No
Параметр GMC формата :0
Параметр Matrix формата :Default (MPEG)
Идентификатор кодека :XVID
Продолжительность :1h 40mn 30s 40ms
Битрейт :1 748 Kbps
Ширина :720 pixels
Высота :384 pixels
Соотношение сторон :1.875
Частота кадров :25.000 fps
Глубина цвета :8 bits
Подвыборка цветности :4:2:0
Цветовое пространство :YUV
Тип развертки :Progressive
Бит/(Пиксели*Кадры) :0.253
Размер потока :1.23 GiB (90%)
Библиотека кодирования :XviD0065

Аудио #1
Идентификатор :1
Формат :AC-3
Формат/Информация :Audio Coding 3
Идентификатор кодека :2000
Продолжительность :01:40:29.952
Вид битрейта :Constant
Битрейт :192 Kbps
Канал(ы) :2 channels
Расположение каналов :Front: L R
Частота :48.0 KHz
Битовая глубина :16 bits
Метод сжатия :Lossy
Размер потока :138 MiB (10%)



Тех. данные:
Качество:DVDRip
Продолжительность:
5920d07271f44ead8fdbb550c992ae07a2b57309Командир / Der Commander (Антонио Маргерити, боевик, военный, 1988) [DVDRip, Авторский (одноголосый, закадровый) А.Дольский] Командир / Der Commander (Антонио Маргерити, боевик, военный, 1988) [DVDRip, Авторский (одноголосый, закадровый) А.Дольский] " />

Аплоадер: Админ, дата: 19-02-2013, 21:03, торрент скачан: 359 раз

Понравилась раздача? Посмотрите эти:
  • Карлик Нос / Zwerg Nase (Карл-Хайнц Бальс, фэнтези, 1978) [DVDRip, Любитель ...
  • Куда покойники уходят умирать [Расширенная версия] / Where the Dead Go to D ...
  • Выбывший из игры / Odd Man Out (Кэрол Рид, фильм-нуар, триллер, драма, мело ...
  • Молчаливый партнер / The Silent Partner (Дэрил Дьюк, триллер, драма, кримин ...
  • Лукас / Lucas (Дэвид Зельцер, драма, мелодрама, комедия, 1986) [HDRip, Авто ...
  • Зверь / Зверь войны / The Beast of War (Кевин Рейнольдс, Драма, военный, ис ...
  • Виллоу / Willow (Рон Ховард, фэнтези, боевик, драма, мелодрама, приключения ...
  • Дневник Гуадалканала / Guadalcanal Diary (Льюис Сейлер, боевик, драма, воен ...
  • Орел Шарпа / Sharpes Eagle (Том Клегг, боевик, приключения, военный, истори ...
  • Огненный ястреб / Firehawk (Сирио Сантьяго, боевик, приключения, военный, 1 ...
  • Официанты / Camerieri (Леоне Помпуччи, Драма, Комедия, 1995) [DVDRip, Автор ...
  • Снова 18 / 18 Again! (Пол Флаэрти, фэнтези, комедия, 1988) [DVDRip, Авторск ...
  • Пуск торпеды / Torpedo Run (Джозеф Пивни, драма, военный, 1958) [DVDRip, Ав ...
  • Ад для героев / Hell Is for Heroes (Дон Сигел, боевик, драма, военный, 1962 ...
  • Лиловая равнина / The Purple Plain (Роберт Пэрриш, боевик, драма, приключен ...
  • Зелиг / Zelig (Вуди Аллен, фэнтези, комедия, 1983) [DVDRip, Авторский (одно ...
  • Морские обезьяны / Umizaru (Эйитиро Хасуми, боевик, драма, 2004) [BDRip, Ав ...
  • Красавица Мемфиса / Memphis Belle (Майкл Кейтон-Джонс, боевик, драма, военн ...
  • Бог знает, мистер Аллисон / Heaven Knows, Mr. Allison (Джон Хьюстон, боевик ...
  • Первый из немногих / История истребителя Спитфайера / The First of the Few ...
  • Пират-самурай / Dai tozoku (Сенкичи Танигучи, фэнтези, боевик, приключения, ...
  • Тюремная буря / Gam yuk fung wan (Ринго Лам, боевик, драма, криминал, 1987) ...
  • Суперполицейские из Майами / Miami Supercops (Бруно Корбуччи, боевик, комед ...
  • Пески Иво Джимы / Sands of Iwo Jima (Аллан Дуон, боевик, драма, мелодрама, ...
  • Повелитель зверей / The Beastmaster (Дон Коскарелли, фэнтези, боевик, прикл ...
  • Информация
    Посетители, находящиеся в группе Гости, не могут оставлять комментарии к данной публикации.