вход на сайт

Имя пользователя :
Пароль :

Восстановление пароля Регистрация
Лучший стрелок / Top Gun (Тони Скотт, боевик, драма, мелодрама, 1986) [BDRip, Профессиональный (многоголосый закадровый)]
Рейтинг:
(голосов: 1)



[img]{THEME}/images/logopost.png[/img]



•Лучший стрелок / Top Gun •
«I feel the need, the need for speed.»
♥ Год выпуска: 1986
♥ Страна: США
♥ Производство: Paramount Pictures
♥ Жанр: боевик, драма, мелодрама

♥ Режиссёр: Тони Скотт
♥ В ролях: Том Круз, Келли МакГиллис, Вэл Килмер, Энтони Эдвардс, Том Скерритт, Майкл Айронсайд, Джон Стокуэлл, Бэрри Табб, Рик Россович, Тим Роббинс

♥ Перевод: Профессиональный (многоголосый закадровый)
♥ Субтитры: Отсутствуют
♥ Описание: Искусный пилот истребителя Ф-14, курсант элитного училища ВМС США, летающий как бог и руководимый как в жизни, так и в небе инстинктами, а не разумом, влюбляется в инструктора училища, астрофизика, которая долгое время отказывает ему во взаимности. Уступит ли она его белозубой улыбке?



♥ Качество: BDRip
♥ Продолжительность: 01:49:36 час.

♥ Формат: AVI
♥ Видео кодек: XviD
♥ Аудио кодек: MP3
♥ Видео: 688x288 (2.40:1), 23.976 fps, 815 Kbps, 0.172 bit/pixel
♥ Аудио1: 48 kHz, MPEG Layer 3, 2 ch, ~128.00 kbps avg
♥ Дата премьеры (мир): 12 мая 1986
MediaInfo: ▼TextGeneral
Complete name : D:Luchshij.strelok.1986.P.BDRip.XviD.746mb.avi
Format : AVI
Format/Info : Audio Video Interleave
File size : 746 MiB
Duration : 1h 49mn
Overall bit rate : 952 Kbps
Writing application : VirtualDubMod 1.5.10.2 (build 2540/release)
Writing library : VirtualDubMod build 2540/release

Video
ID : 0
Format : MPEG-4 Visual
Format profile : Advanced [email protected]
Format settings, BVOP : 1
Format settings, QPel : No
Format settings, GMC : No warppoints
Format settings, Matrix : Custom
Codec ID : XVID
Codec ID/Hint : XviD
Duration : 1h 49mn
Bit rate : 815 Kbps
Width : 688 pixels
Height : 288 pixels
Display aspect ratio : 2.40:1
Frame rate : 23.976 fps
Color space : YUV
Chroma subsampling : 4:2:0
Bit depth : 8 bits
Scan type : Progressive
Compression mode : Lossy
Bits/(Pixel*Frame) : 0.172
Stream size : 639 MiB (86%)
Writing library : XviD 1.2.1 (UTC 2008-12-04)

Audio
ID : 1
Format : MPEG Audio
Format version : Version 1
Format profile : Layer 3
Mode : Joint stereo
Mode extension : MS Stereo
Codec ID : 55
Codec ID/Hint : MP3
Duration : 1h 49mn
Bit rate mode : Constant
Bit rate : 128 Kbps
Channel(s) : 2 channels
Sampling rate : 48.0 KHz
Compression mode : Lossy
Stream size : 100 MiB (13%)
Alignment : Aligned on interleaves
Interleave, duration : 42 ms (1.00 video frame)
Interleave, preload duration : 504 ms
Релиз Группы "Virtus"

Стол заказов / Вступление в РГ / Благодарности, критика и другое



def525975eeb59a12a603a7dff4b859d3dec3c03Лучший стрелок / Top Gun (Тони Скотт, боевик, драма, мелодрама, 1986) [BDRip, Профессиональный (многоголосый закадровый)] Лучший стрелок / Top Gun (Тони Скотт, боевик, драма, мелодрама, 1986) [BDRip, Профессиональный (многоголосый закадровый)] " />

Аплоадер: Админ, дата: 18-02-2013, 20:33, торрент скачан: 359 раз

Понравилась раздача? Посмотрите эти:
  • Посылка / The Package (Джесси Джонсон, боевик, 2013) [HDRip, Профессиональн ...
  • Посылка / The Package (Джесси Джонсон, боевик, 2013) [HDRip, Профессиональн ...
  • 42 / 42 (Брайан Хелгеленд, драма, биография, спорт, 2013) [BDRip, Профессио ...
  • Игра смерти / Game of death (Роберт Клауз, Саммо Хунг Кам-Бо, Брюс Ли, боев ...
  • Цель Номер Один / Zero Dark Thirty (Кэтрин Бигелоу, боевик, триллер, драма, ...
  • [3D] Лучший стрелок / Top Gun (Тони Скотт / Tony Scott, Боевик, Драма, Мело ...
  • [3D] Лучший стрелок / Top Gun (Тони Скотт, боевик, драма, мелодрама, 1986) ...
  • Неуловимые / Red Dawn (Дэн Брэдли, боевик, 2012) [HDRip, Профессиональный ( ...
  • Любовь на кончиках пальцев / Populaire (Режис Ройнсар, Мелодрама, комедия, ...
  • Лучший стрелок / Top Gun [1986, Боевик, Мелодрама, Драма, DVDRip]
  • Эрик Викинг / Erik the Viking (Терри Джонс, фэнтези, комедия, приключения, ...
  • Мой парень – псих / Silver Linings Playbook (Дэвид О. Расселл, Драма, мелод ...
  • Лучший стрелок / Top Gun (Тони Скотт, Боевик, мелодрама, 1986) [BDRip 1080p ...
  • Следопыт / Tracker (Йен Шарп, боевик, драма, приключения, 2010) [HDRip, Про ...
  • Папаша / Starbuck (Кен Скотт, Драма, комедия, 2011) [BDRip, Профессиональны ...
  • Индиана Джонс: В поисках утраченного ковчега / Indiana Jones and the Raider ...
  • Индиана Джонс и Храм Судьбы / Indiana Jones and the Temple of Doom (Стивен ...
  • Лучший стрелок / Top Gun (Тони Скотт / Tony Scott, Боевик, мелодрама, драма ...
  • Лучший стрелок / Top Gun (Тони Скотт / Tony Scott, Боевик, мелодрама, драма ...
  • Яркая звезда / Bright Star (Джейн Кэмпион / Jane Campion) [2009, Биографиче ...
  • Романтики / The Romantics (Галт Нидерхоффер, Драма, мелодрама, комедия, 201 ...
  • Попутчик / The Hitcher (Роберт Хармон, боевик, триллер, криминал, 1986) [DV ...
  • Мгновение любви / Here (Браден Кинг, Драма, мелодрама, приключения, 2011) [ ...
  • Девушки в опасности / Damsels in Distress (Уит Стиллман, драма, мелодрама, ...
  • Ничего, кроме правды / Nothing But the Truth (Род Лури, триллер, драма, 200 ...
  • Информация
    Посетители, находящиеся в группе Гости, не могут оставлять комментарии к данной публикации.