вход на сайт

Имя пользователя :
Пароль :

Восстановление пароля Регистрация
Напряги Извилины / Get Smart (Питер Сигал, Комедия, боевик, приключения, 2008) [HDRip-AVC, Дубляж + Оригинал + sub]
Рейтинг:
(голосов: 1)



[img]{THEME}/images/logopost.png[/img]



Напряги извилины / Get Smart
«Они любят спасать мир... по-своему»

Год выпуска: 2008
Страна: США, Канада
Производство: Atlas Entertainment
Жанр: боевик, комедия, приключения

Режиссёр: Питер Сигал
В ролях: Стив Карелл Энн Хэтэуэй Алан Аркин Дуэйн Джонсон Теренс Стэмп Терри Крюс Дэвид Кокнер Маси Ока Нейт Торренс Джеймс Каан

Перевод: Дубляж + Оригинал (английский)
Субтитры: Английские(SDH), русские (SDH), русские (Forced)

Описание: Ремейк комедийного сериала 60-х годов. Неуклюжие приёмы секретного агента Максвелла Смарта, взявшегося за обезвреживание группировки «Хаос», стремящейся к власти над миром, ставят операцию под угрозу. Во избежание провала командование прикрепляет к Смарту Агента 99…



Автор рипа:

Качество: HDRip-AVC | исх: BDRip / 720p
Продолжительность: 01:49:58

Формат: MKV
Видео кодек: H.264
Аудио кодек: AC3
Видео: H.264, 1024x576 (16:9), 23,976 fps, 1884 Кbps, 0.133 bit/pixel
Аудио#1: 48 kHz, AC3 DD, 3/2 (L,C,R,l,r) + LFE ch, ~640.00 kbps avg | RUS
Аудио#2: 48 kHz, AC3 DD, 3/2 (L,C,R,l,r) + LFE ch, ~384.00 kbps avg | ENG

Дата премьеры (мир): 19 июня 2008
Дата премьеры (РФ): 17 июля 2008, «Каро-Премьер»
"MediaInfo" ▼General
Unique ID : 174820878050350109906211952195159489652 (0x838546C1C3EAC1229051818B25E07C74)
Complete name : Naprjagi.Izviliny.2008.D.HDRip.x264.potroks.mkv
Format : Matroska
Format version : Version 2
File size : 2.24 GiB
Duration : 1h 49mn
Overall bit rate : 2 910 Kbps
Movie name : -=POTROKS=-
Encoded date : UTC 2012-12-03 12:01:18
Writing application : mkvmerge v5.7.0 (The Whirlwind) built on Jul 8 2012 20:08:51
Writing library : libebml v1.2.3 + libmatroska v1.3.0

Video
ID : 1
Format : AVC
Format/Info : Advanced Video Codec
Format profile : [email protected]
Format settings, CABAC : Yes
Format settings, ReFrames : 5 frames
Codec ID : V_MPEG4/ISO/AVC
Duration : 1h 49mn
Bit rate : 1 884 Kbps
Width : 1 024 pixels
Height : 576 pixels
Display aspect ratio : 16:9
Frame rate : 23.976 fps
Color space : YUV
Chroma subsampling : 4:2:0
Bit depth : 8 bits
Scan type : Progressive
Bits/(Pixel*Frame) : 0.133
Stream size : 1.40 GiB (63%)
Title : Напряги извилины by potroks
Writing library : x264 core 112 r1834 a51816a
Encoding settings : cabac=1 / ref=5 / deblock=1:-1:-1 / analyse=0x3:0x113 / me=umh / subme=8 / psy=1 / psy_rd=1.00:0.10 / mixed_ref=1 / me_range=16 / chroma_me=1 / trellis=1 / 8x8dct=1 / cqm=0 / deadzone=21,11 / fast_pskip=1 / chroma_qp_offset=-3 / threads=6 / sliced_threads=0 / nr=0 / decimate=1 / interlaced=0 / constrained_intra=0 / bframes=3 / b_pyramid=2 / b_adapt=2 / b_bias=0 / direct=3 / weightb=1 / open_gop=0 / weightp=2 / keyint=250 / keyint_min=23 / scenecut=40 / intra_refresh=0 / rc_lookahead=50 / rc=2pass / mbtree=1 / bitrate=1884 / ratetol=1.0 / qcomp=0.60 / qpmin=0 / qpmax=51 / qpstep=4 / cplxblur=20.0 / qblur=0.5 / ip_ratio=1.40 / aq=1:1.00
Language : English
Default : Yes
Forced : No

Audio #1
ID : 2
Format : AC-3
Format/Info : Audio Coding 3
Mode extension : CM (complete main)
Format settings, Endianness : Big
Codec ID : A_AC3
Duration : 1h 49mn
Bit rate mode : Constant
Bit rate : 640 Kbps
Channel(s) : 6 channels
Channel positions : Front: L C R, Side: L R, LFE
Sampling rate : 48.0 KHz
Bit depth : 16 bits
Compression mode : Lossy
Stream size : 503 MiB (22%)
Title : AC3 5.1 640 kbps DUB
Language : Russian
Default : Yes
Forced : No

Audio #2
ID : 3
Format : AC-3
Format/Info : Audio Coding 3
Mode extension : CM (complete main)
Format settings, Endianness : Big
Codec ID : A_AC3
Duration : 1h 49mn
Bit rate mode : Constant
Bit rate : 384 Kbps
Channel(s) : 6 channels
Channel positions : Front: L C R, Side: L R, LFE
Sampling rate : 48.0 KHz
Bit depth : 16 bits
Compression mode : Lossy
Stream size : 302 MiB (13%)
Title : Оригинал DD 5.1 @ 384 kbps
Language : English
Default : No
Forced : No

Text #1
ID : 4
Format : UTF-8
Codec ID : S_TEXT/UTF8
Codec ID/Info : UTF-8 Plain Text
Title : Forced
Language : Russian
f542e3983f978314a716fab3eb3fb2addb8b3d5e Напряги Извилины / Get Smart (Питер Сигал, Комедия, боевик, приключения, 2008) [HDRip-AVC, Дубляж + Оригинал + sub] Напряги Извилины / Get Smart (Питер Сигал, Комедия, боевик, приключения, 2008) [HDRip-AVC, Дубляж + Оригинал + sub] " />

Аплоадер: Админ, дата: 7-02-2013, 16:33, торрент скачан: 359 раз

Понравилась раздача? Посмотрите эти:
  • Ананасовый экспресс. Сижу, курю / Pineapple Express [Theatrical Cut] (Дэвид ...
  • Напряги извилины / Get Smart (Питер Сигал, боевик, триллер, комедия, 2008) ...
  • РЭД / RED (Роберт Швентке, боевик, комедия, криминал, 2010 г.) [HDRip-AVC, ...
  • 007: Координаты «Скайфолл» / Skyfall (Сэм Мендес, Боевик, триллер, криминал ...
  • Напряги извилины / Get Smart (Питер Сигал, боевик, комедия, приключения, 2 ...
  • Жажда странствий / Wanderlust (Дэвид Уэйн, Мелодрама, комедия, 2012) [BDRip ...
  • Центурион / Centurion (Нил Маршалл / Neil Marshall, Боевик, триллер, драма, ...
  • Патруль / End of Watch (Дэвид Эйр, Триллер, драма, криминал, 2012) [BDRip-A ...
  • Закон доблести / Act of Valor (Майк МакКой, Скотт Во, боевик, триллер, прик ...
  • Коллекционер 2 / The Collection (Маркус Данстэн, ужасы, боевик, триллер , 2 ...
  • Проект X: Дорвались / Project X (Нима Нуризаде, комедия, 2012) [BDRip 720p, ...
  • Мачо и ботан / 21 Jump Street (Фил Лорд, Крис Миллер, боевик, комедия, 2012 ...
  • «Весёлые» каникулы / Get the Gringo (Адриан Грюнберг, Боевик, комедия, 2012 ...
  • Ворон / The Raven (Джеймс МакТиг, Триллер, детектив, 2012) [BDRip 720p, Дуб ...
  • Пираньи 3DD / Piranha 3DD (Джон Гулажер, ужасы, триллер, комедия, 2012) [BD ...
  • Люди в черном 3 / Men in Black III (Барри Зонненфельд, Фантастика, боевик, ...
  • Супер Майк / Magic Mike (Стивен Содерберг, Драма, комедия, 2012) [BDRip 720 ...
  • Супер Майк / Magic Mike (Стивен Содерберг, Драма, комедия, 2012) [BDRip 108 ...
  • На Дороге / On The Road (Уолтер Саллес, Драма, приключения, 2012) [BDRip 72 ...
  • Mylene Farmer / Du Temps [2011, Pop, HDTVRip]
  • Напряги извилины / Get Smart (Питер Сигал, боевик, комедия, приключения, кр ...
  • Напряги Извилины / Get Smart (Питер Сигал / Peter Segal, 2008 г., Kомеди ...
  • Напряги Извилины / Get Smart (Питер Сигал, Комедия, боевик, приключения, 20 ...
  • Сверхновый Супермен / All-Star Superman (Сэм Лью, мультфильм, фантастика, б ...
  • Напряги извилины / Get Smart (Питер Сигал, Боевик, Комедия, Приключения, 20 ...
  • Информация
    Посетители, находящиеся в группе Гости, не могут оставлять комментарии к данной публикации.