вход на сайт

Имя пользователя :
Пароль :

Восстановление пароля Регистрация
Железный Кулак [Театральная версия] / The Man with the Iron Fists [Theatrical Cut] (RZA, Боевик, 2012) [BDRip-AVC, Дубляж, Оригинал (английский), Sub]
Рейтинг:
(голосов: 1)



[img]{THEME}/images/logopost.png[/img]



Железный Кулак [Театральная версия] / The Man with the Iron Fists [Theatrical Cut]
«Seven clans, a fortune in gold. Let the battle begin.»


Год выпуска: 2012
Страна: США, Гонконг
Производство: Arcade Pictures, Iron Fists
Жанр: Боевик

Режиссёр: RZA
В ролях:Рассел Кроу, Люси Лью, Пэм Гриер, РЗА, Джа Хуи Лью, Джеми Чунг, Дэйв Батиста, Кунг Ле, Жу Жу, Рик Юн, Байрон Манн, Осрик Чау

Перевод: Дубляж, Оригинал (английский)
Субтитры: Русские, английские

Описание: События развернутся в древнем феодальном Китае. Фильм расскажет историю чернокожего кузнеца, который умеет делать оружие и с легкой руки снабжает им всех, у кого есть чем заплатить. Китай того времени — жестокое место, поэтому оружие и знание навыков кунг-фу помогут жителям близлежащей деревни защитить свои дома и семьи от других кланов…



Качество: BDRip-AVC |Сэмпл
Продолжительность: 01:35:16 час.


Формат: MKV
Видео кодек: x264
Аудио кодек: AC3
Видео: 1024x424 (2.40:1), 23.976 fps, x264 ~2 355 kbps avg, 0.226 bit/pixel
Аудио#1: 48 kHz, AC3 Dolby Digital, 3/2 (L,C,R,l,r) + LFE ch, ~448 kbps avg - (Дубляж)
Аудио#2: 48 kHz, AC3 Dolby Digital, 3/2 (L,C,R,l,r) + LFE ch, ~448 kbps avg - (Оригинал)

Дата премьеры (мир): 2 ноября 2012

MediaInfo ▼General
Unique ID : 211176450214381890995051772318051409872 (0x9EDF1ADAD6F25D7391234438C1931FD0)
Complete name : D:Iron.fistsChelovek.s.zheleznymi.kulakami.2012.BDRip.(AVC).mkv
Format : Matroska
Format version : Version 2
File size : 2.16 GiB
Duration : 1h 35mn
Overall bit rate : 3 253 Kbps
Encoded date : UTC 2013-04-01 07:15:24
Writing application : mkvmerge v5.6.0 (Kenya Kane) built on May 27 2012 16:44:04
Writing library : libebml v1.2.3 + libmatroska v1.3.0

Video
ID : 1
Format : AVC
Format/Info : Advanced Video Codec
Format profile : [email protected]
Format settings, CABAC : Yes
Format settings, ReFrames : 10 frames
Codec ID : V_MPEG4/ISO/AVC
Duration : 1h 35mn
Bit rate : 2 355 Kbps
Width : 1 024 pixels
Height : 424 pixels
Display aspect ratio : 2.40:1
Frame rate mode : Constant
Frame rate : 23.976 fps
Color space : YUV
Chroma subsampling : 4:2:0
Bit depth : 8 bits
Scan type : Progressive
Bits/(Pixel*Frame) : 0.226
Stream size : 1.53 GiB (70%)
Writing library : x264 core 130 r2273 b3065e6
Encoding settings : cabac=1 / ref=10 / deblock=1:-3:-3 / analyse=0x3:0x133 / me=umh / subme=10 / psy=1 / psy_rd=1.00:0.10 / mixed_ref=1 / me_range=48 / chroma_me=1 / trellis=2 / 8x8dct=1 / cqm=0 / deadzone=21,11 / fast_pskip=0 / chroma_qp_offset=-3 / threads=6 / lookahead_threads=1 / sliced_threads=0 / nr=0 / decimate=1 / interlaced=0 / bluray_compat=0 / constrained_intra=0 / bframes=5 / b_pyramid=2 / b_adapt=2 / b_bias=0 / direct=3 / weightb=1 / open_gop=0 / weightp=2 / keyint=240 / keyint_min=22 / scenecut=40 / intra_refresh=0 / rc_lookahead=40 / rc=2pass / mbtree=1 / bitrate=2355 / ratetol=1.0 / qcomp=0.60 / qpmin=10 / qpmax=51 / qpstep=4 / cplxblur=20.0 / qblur=0.5 / ip_ratio=1.40 / aq=1:1.00
Language : English
Default : Yes
Forced : No

Audio #1
ID : 2
Format : AC-3
Format/Info : Audio Coding 3
Mode extension : CM (complete main)
Format settings, Endianness : Big
Codec ID : A_AC3
Duration : 1h 35mn
Bit rate mode : Constant
Bit rate : 448 Kbps
Channel(s) : 6 channels
Channel positions : Front: L C R, Side: L R, LFE
Sampling rate : 48.0 KHz
Bit depth : 16 bits
Compression mode : Lossy
Stream size : 305 MiB (14%)
Language : Russian
Default : Yes
Forced : No

Audio #2
ID : 3
Format : AC-3
Format/Info : Audio Coding 3
Mode extension : CM (complete main)
Format settings, Endianness : Big
Codec ID : A_AC3
Duration : 1h 35mn
Bit rate mode : Constant
Bit rate : 448 Kbps
Channel(s) : 6 channels
Channel positions : Front: L C R, Side: L R, LFE
Sampling rate : 48.0 KHz
Bit depth : 16 bits
Compression mode : Lossy
Stream size : 305 MiB (14%)
Language : English
Default : No
Forced : No

Text #1
ID : 4
Format : UTF-8
Codec ID : S_TEXT/UTF8
Codec ID/Inf
790182f5e1e413f70ba2c1e1f71d12bb2ae374e1Железный Кулак [Театральная версия] / The Man with the Iron Fists [Theatrical Cut] (RZA, Боевик, 2012) [BDRip-AVC, Дубляж, Оригинал (английский), Sub] Железный Кулак [Театральная версия] / The Man with the Iron Fists [Theatrical Cut] (RZA, Боевик, 2012) [BDRip-AVC, Дубляж, Оригинал (английский), Sub] " />

Аплоадер: Админ, дата: 1-04-2013, 17:13, торрент скачан: 359 раз

Понравилась раздача? Посмотрите эти:
  • [3D] Железный человек 3 / Iron Man 3 (Шейн Блэк, Фантастика, боевик, приклю ...
  • Железный человек 3 / Iron Man 3 (Шейн Блэк, Фантастика, боевик, приключения ...
  • [iPhone, iPod] Железный Кулак / The Man with the Iron Fists (Рассел Кроу, Б ...
  • Железный Кулак / The Man with the Iron Fists (RZA, Боевик, 2012) [DVD9, Дуб ...
  • Железный Кулак [Театральная версия] / The Man with the Iron Fists [Theatric ...
  • Железный Кулак [Театральная версия] / The Man with the Iron Fists [Theatric ...
  • Железный Кулак / The Man with the Iron Fists (RZA, Боевик, 2012) [HDRip, Ду ...
  • Железный Кулак / The Man with the Iron Fists (RZA, Боевик, 2012) [HDRip, Ду ...
  • Железный Кулак / The Man with the Iron Fists (RZA, Боевик, 2012) [HDRip-AVC ...
  • Железный Кулак / The Man with the Iron Fists (Рассел Кроу, Боевик, 2012) [3 ...
  • Человек с железными кулаками [Театральная версия] / The Man with the Iron F ...
  • Железный Кулак [Театральная версия] / The Man with the Iron Fists [Theatric ...
  • Человек с железными кулаками / The Man with the Iron Fists (Рза, боевик, 20 ...
  • Человек с железными кулаками [Театральная версия] / The Man with the Iron F ...
  • Белоснежка и охотник [Театральная версия] / Snow White and the Huntsman [Th ...
  • Папа-Досвидос [Театральная версия] / Thats My Boy [Theatrical Cut] (Шон Анд ...
  • Белоснежка и охотник [Театральная версия] / Snow White and the Huntsman [Th ...
  • Белоснежка и охотник [Театральная версия] / Snow White and the Huntsman [Th ...
  • Человек с железными кулаками / The Man with the Iron Fists (RZA, боевик, 20 ...
  • [Трейлер] Человек с железными кулаками / The Man with the Iron Fists (РЗА, ...
  • Информация
    Посетители, находящиеся в группе Гости, не могут оставлять комментарии к данной публикации.