вход на сайт

Имя пользователя :
Пароль :

Восстановление пароля Регистрация
Корсиканец / LEnquete corse (Ален Берберян, боевик, комедия, криминал, 2004) [BDRip-AVC, Профессиональный (полное дублирование), Оригинал (французский), Sub [Rus, Eng]]
Рейтинг:
(голосов: 1)



[img]{THEME}/images/logopost.png[/img]



«Корсиканец / LEnquête corse»

¤Информация о фильме¤
Год выпуска: 2004
Страна: Франция
Производство: Gaumont, Légende Productions, Ouille Productions
Жанр: боевик, комедия, криминал

Режиссёр: Ален Берберян / Alain Berbérian
В ролях: Кристиан Клавье, Жан Рено, Катерина Мурино, Дидье Фламан, Пьер Саласка, Эрик Фратичелли, Ален Маратрат, Франсуа Орсони, Натанаэль Маини, Альбер Дрэ

Перевод: Профессиональный (полное дублирование), Оригинал (французский)
Озвучка: Геннадий Богачёв, Виктор Костецкий, Вадим Никитин, Сергей Дьячков, Валерий Соловьев
Субтитры: Sub [Rus, Eng] (вшитые, отключаемые)

Описание
¤ ¤ ¤
«Парижский нотариус поручает знаменитому детективу и любимцу женщин Джеку Палмеру разыскать на Корсике своего пропавшего клиента, мсье Леони. Приехав на Остров красоты, детектив Палмер быстро превращается из восторженного туриста в решительного бойца, а с виду легкая развлекательная поездка оборачивается рискованной шпионской миссией…»
¤ ¤ ¤
--------------------------------------------

---------------------------------------------



¤Тех.Данные¤
Качество: BDRip-AVC
Продолжительность: ~ 01:33:19 часа

Формат: Matroska-MKV-
Видео кодек: AVC [email protected]
Аудио кодек: Audio Coding 3
Видео: 1024x436 (2.35:1), 24.00 fps, AVC ~3100 kbps avg, 0.289 bit/pixel
Аудио: 48 kHz, AC3, 3/2 (L,C,R,l,r) + L,F,E ch, ~448 kbpsРусский
Аудио: 48 kHz, AC3, 3/2 (L,C,R,l,r) + L,F,E ch, ~448 kbpsФранцузский

Информация MediaInfo ▼TextОбщее
Уникальный идентификатор : 172645941014882749281602231135293181120 (0x81E26614FCDC98D4A0C2582E94B88CC0)
Полное имя : E:DownloadsКорсиканец.2004.BDRip-AVC.mkv
Формат : Matroska
Версия формата : Version 2
Размер файла : 2,60 Гбайт
Продолжительность : 1 ч. 33 м.
Общий поток : 3996 Кбит/сек
Название фильма : = MediaClub = rip by Painter
Дата кодирования : UTC 2013-04-07 16:25:53
Программа кодирования : mkvmerge v5.4.0 (Piper) built on Mar 10 2012 13:34:39
Библиотека кодирования : libebml v1.2.3 + libmatroska v1.3.0

Видео
Идентификатор : 1
Формат : AVC
Формат/Информация : Advanced Video Codec
Профиль формата : [email protected]
Параметр CABAC формата : Да
Параметр ReFrames формата : 9 кадров
Идентификатор кодека : V_MPEG4/ISO/AVC
Продолжительность : 1 ч. 33 м.
Битрейт : 3100 Кбит/сек
Ширина : 1024 пикселя
Высота : 436 пикселей
Соотношение сторон : 2,35:1
Частота кадров : 24,000 кадра/сек
Цветовое пространство : YUV
Субдискретизация насыщенности : 4:2:0
Битовая глубина : 8 бит
Тип развёртки : Прогрессивная
Бит/(Пиксели*Кадры) : 0.289
Размер потока : 1,97 Гбайт (76%)
Библиотека кодирования : x264 core 125 r2208 d9d2288
Настройки программы : cabac=1 / ref=9 / deblock=1:-3:-2 / analyse=0x3:0x133 / me=umh / subme=11 / psy=1 / psy_rd=1.00:0.15 / mixed_ref=1 / me_range=32 / chroma_me=1 / trellis=2 / 8x8dct=1 / cqm=0 / deadzone=21,11 / fast_pskip=0 / chroma_qp_offset=-3 / threads=6 / lookahead_threads=1 / sliced_threads=0 / nr=0 / decimate=0 / interlaced=0 / bluray_compat=0 / constrained_intra=0 / bframes=8 / b_pyramid=2 / b_adapt=2 / b_bias=0 / direct=3 / weightb=1 / open_gop=0 / weightp=2 / keyint=240 / keyint_min=23 / scenecut=40 / intra_refresh=0 / rc=2pass / mbtree=0 / bitrate=3100 / ratetol=1.0 / qcomp=0.60 / qpmin=0 / qpmax=69 / qpstep=4 / cplxblur=20.0 / qblur=0.5 / ip_ratio=1.40 / pb_ratio=1.30 / aq=1:0.80
Язык : French
Default : Да
Forced : Нет

Аудио #1
Идентификатор : 2
Формат : AC-3
Формат/Информация : Audio Coding 3
Расширение режима : CM (complete main)
Идентификатор кодека : A_AC3
Продолжительность : 1 ч. 33 м.
Вид битрейта : Постоянный
Битрейт : 448 Кбит/сек
Каналы : 6 каналов
Расположение каналов : Front: L C R, Side: L R, LFE
Частота : 48,0 КГц
Битовая глубина : 16 бит
Метод сжатия : С потерями
Размер потока : 299 Мбайт (11%)
Заголовок : Дубляж
Язык : Russian
Default : Да
Forc
d1be2fcb6ba222aa0e2683a6ee0625deb17f6845Корсиканец / LEnquete corse (Ален Берберян, боевик, комедия, криминал, 2004) [BDRip-AVC, Профессиональный (полное дублирование), Оригинал (французский), Sub [Rus, Eng]] Корсиканец / LEnquete corse (Ален Берберян, боевик, комедия, криминал, 2004) [BDRip-AVC, Профессиональный (полное дублирование), Оригинал (французский), Sub [Rus, Eng]] " />

Аплоадер: Админ, дата: 8-04-2013, 16:47, торрент скачан: 359 раз

Понравилась раздача? Посмотрите эти:
  • Андроид / Android (App) (Бобо Боерманс, Tриллер, 2013) [BDRip-AVC, Професси ...
  • Погнали! / Getaway (Кортни Соломон, боевик, криминал, 2013) [BDRip 1080p, П ...
  • 11.6 / 11.6 (Филипп Годо, Драма, триллер, криминал, 2013) [BDRip-AVC, Профе ...
  • Иллюзия обмана / Now You See Me [Extended Cut] (Луи Летерье, триллер, крими ...
  • Война миров Z / World War Z [Theatrical Cut] (Марк Форстер, ужасы, фантасти ...
  • Башня / The Tower (Чи-хун Ким, драма, 2012) [BDRip-AVC, Любительский (двухг ...
  • Корсиканец / L Enquête corse (Ален Берберян, Боевик, Комедия, Криминал, 200 ...
  • Летучий отряд Скотланд-Ярда / The Sweeney (Ник Лав, Боевик, драма, криминал ...
  • Поймай толстуху, если сможешь [Театральная версия] / Identity Thief [Theatr ...
  • Голливудский мусор / Garbage (Филипп Волкен, драма, комедия, 2013) [HDTVRip ...
  • Рикошет / Ricochet (Ник Гомез, драма, детектив, 2011) [BDRip-AVC, Профессио ...
  • Переполох на районе / Les Kaïra (Франк Гастамбиде, комедия, 2012) [BDRip 10 ...
  • Даю год / I Give It a Year (Дэн Мазер, мелодрама, комедия, 2012) [BDRip-AVC ...
  • Паркер / Parker (Тейлор Хэкфорд, Боевик, триллер, криминал, 2013) [BDRip-AV ...
  • Огонь Кристиана Лубутена 3D / FEU: Crazy Horse Paris (Бруно Халлин, Докумен ...
  • Корсиканец / L Enquête corse (Ален Берберян, боевик, комедия, криминал, 200 ...
  • Ангелы Чарли / Charlies Angels (МакДжи, Боевик, триллер, комедия, криминал, ...
  • Толстяк на ринге / Here Comes the Boom (Фрэнк Корачи, Боевик, комедия, 2012 ...
  • Суррогат / The Sessions (Бен Луин, Драма, 2012) [BDRip-AVC, Профессиональны ...
  • Драйв / Drive (Николас Виндинг Рёфн, боевик, триллер, драма, криминал, 2011 ...
  • Профессионал / Killer Elite (Гэри МакКендри, боевик, 2011) [BDRip-AVC, Проф ...
  • Корсиканец / L Enquête corse (Ален Берберян, комедия, боевик, криминал, 200 ...
  • Переростки / The Inbetweeners (Бен Палмер / Ben Palmer, комедия, 2011) [BDR ...
  • Лоракс: Серенада / The Lorax: Serenade (Кайл Балда, мультфильм, комедия, му ...
  • Петля времени / Looper (Райан Джонсон, Фантастика, боевик, триллер, кримина ...
  • Информация
    Посетители, находящиеся в группе Гости, не могут оставлять комментарии к данной публикации.