вход на сайт

Имя пользователя :
Пароль :

Восстановление пароля Регистрация
Джек Ричер / Jack Reacher (Кристофер МакКуорри, Боевик,триллер, криминал, детектив, 2012) [BDRip-AVC, Дублированный + Sub [Rus]]
Рейтинг:
(голосов: 1)



[img]{THEME}/images/logopost.png[/img]



Джек Ричер / Jack Reacher
«У закона есть пределы. У него их нет»



Год выпуска: 2012
Страна: США
Производство: Mutual Film Company, Paramount Pictures, Skydance Productions
Жанр: Боевик,триллер, криминал, детектив

Режиссер: Кристофер МакКуорри
В ролях: Том Круз, Розамунд Пайк, Ричард Дженкинс, Вернер Херцог, Дэвид Ойелоуо, Роберт Дюваль, Джей Кортни, Владимир Сизов, Джозеф Сикора, Майкл Рэймонд-Джеймс

Перевод: Дублированный
Субтитры: Русские

Описание: Снайпер убивает пять случайных прохожих, но все улики указывают на человека, заключенного под стражу. На допросе подозреваемый умоляет об одном — найти Джека Ричера.


МедиаИнфо ▼Text
Полное имя : D:о немEl Barco (3 сезон)Новые раздачиalice-with-horseНовый пакНовая папкаКлипыфильмыНовая папкаАзатуНовая папкаПоследний самурайНовая папкаАзаткомедииJack.Reacher.2012.BDRip.(AVC).mkv
Формат : Matroska
Версия формата : Version 4 / Version 2
Размер файла : 2,18 Гбайт
Продолжительность : 2 ч. 10 м.
Общий поток : 2391 Кбит/сек
Дата кодирования : UTC 2013-04-20 13:04:32
Программа кодирования : mkvmerge v6.1.0 (Old Devil) built on Mar 2 2013 14:32:37
Библиотека кодирования : libebml v1.3.0 + libmatroska v1.4.0

Видео
Идентификатор : 1
Формат : AVC
Формат/Информация : Advanced Video Codec
Профиль формата : [email protected]
Параметр CABAC формата : Да
Параметр ReFrames формата : 10 кадров
Идентификатор кодека : V_MPEG4/ISO/AVC
Продолжительность : 2 ч. 10 м.
Битрейт : 1942 Кбит/сек
Ширина : 1024 пикселя
Высота : 436 пикселей
Соотношение сторон : 2,35:1
Режим частоты кадров : Постоянный
Частота кадров : 23,976 кадра/сек
Цветовое пространство : YUV
Субдискретизация насыщенности : 4:2:0
Битовая глубина : 8 бит
Тип развёртки : Прогрессивная
Бит/(Пиксели*Кадры) : 0.181
Размер потока : 1,73 Гбайт (79%)
Библиотека кодирования : x264 core 130 r2273 b3065e6
Настройки программы : cabac=1 / ref=10 / deblock=1:-2:-2 / analyse=0x3:0x133 / me=umh / subme=9 / psy=1 / psy_rd=1.05:0.10 / mixed_ref=1 / me_range=24 / chroma_me=1 / trellis=2 / 8x8dct=1 / cqm=0 / deadzone=21,11 / fast_pskip=0 / chroma_qp_offset=-3 / threads=12 / lookahead_threads=1 / sliced_threads=0 / nr=0 / decimate=1 / interlaced=0 / bluray_compat=0 / constrained_intra=0 / bframes=6 / b_pyramid=2 / b_adapt=2 / b_bias=0 / direct=3 / weightb=1 / open_gop=0 / weightp=2 / keyint=240 / keyint_min=23 / scenecut=40 / intra_refresh=0 / rc=2pass / mbtree=0 / bitrate=1942 / ratetol=1.0 / qcomp=0.65 / qpmin=0 / qpmax=69 / qpstep=4 / cplxblur=20.0 / qblur=0.5 / ip_ratio=1.40 / pb_ratio=1.30 / aq=1:0.80
Язык : English
Default : Да
Forced : Нет

Аудио
Идентификатор : 2
Формат : AC-3
Формат/Информация : Audio Coding 3
Расширение режима : CM (complete main)
Параметр Endianness формата : Big
Идентификатор кодека : A_AC3
Продолжительность : 2 ч. 10 м.
Вид битрейта : Постоянный
Битрейт : 448 Кбит/сек
Каналы : 6 каналов
Расположение каналов : Front: L C R, Side: L R, LFE
Частота : 48,0 КГц
Битовая глубина : 16 бит
Метод сжатия : С потерями
Размер потока : 418 Мбайт (19%)
Язык : Russian
Default : Да
Forced : Нет

Меню
00:00:00.000 : :Chapter 01
00:08:21.667 : :Chapter 02
00:14:19.900 : :Chapter 03
00:21:51.685 : :Chapter 04
00:30:02.342 : :Chapter 05
00:35:46.477 : :Chapter 06
00:41:22.980 : :Chapter 07
00:49:08.111 : :Chapter 08
00:55:36.291 : :Chapter 09
01:01:44.117 : :Chapter 10
01:08:11.295 : :Chapter 11
01:16:56.320 : :Chapter 12
01:23:51.526 : :Chapter 13
01:30:20.164 : :Chapter 14
01:38:01.584 : :Chapter 15
01:45:08.927 : :Chapter 16
01:53:39.312 : :Chapter 17
02:01:50.469 : :Chapter 18
02:10:24.149 : :Chapter 19



Премьеры ▼

Премьера (мир): 20 декабря 2012
Премьера (РФ): 10 января 2013
Сборы в США: $80 070 736


Качество: BDRip-AVC
Продолжительность: 02:10:24

Формат: MKV
Видео кодек: x.264
Аудио кодек: AC3
Видео: 1024x436
0253e62bdff2bd702e3373267fadc32a7831e280Джек Ричер / Jack Reacher (Кристофер МакКуорри, Боевик,триллер, криминал, детектив, 2012) [BDRip-AVC, Дублированный + Sub [Rus]] Джек Ричер / Jack Reacher (Кристофер МакКуорри, Боевик,триллер, криминал, детектив, 2012) [BDRip-AVC, Дублированный + Sub [Rus]] " />

Аплоадер: Админ, дата: 20-04-2013, 21:10, торрент скачан: 359 раз

Понравилась раздача? Посмотрите эти:
  • Война миров Z / World War Z [Расширенная версия] (Марк Форстер, ужасы, фант ...
  • Поймай толстуху, если сможешь [Театральная версия] / Identity Thief [Theatr ...
  • Астрал на улице Арлетт / 388 Arletta Avenue (Рэндолл Коул, Триллер, 2011) [ ...
  • Джек Ричер / Jack Reacher (Кристофер МакКуорри, боевик, триллер, детектив, ...
  • Королевство кривых зеркал (Александр Роу, фэнтези, семейный, 1963) [BDRip-A ...
  • Джек Ричер / Jack Reacher (Кристофер МакКуорри, боевик, триллер, криминал, ...
  • Джек Ричер / Jack Reacher (Кристофер МакКуорри, Боевик, триллер, криминал, ...
  • Джек Ричер / Jack Reacher (Кристофер МакКуорри, боевик, триллер, криминал, ...
  • Джек Ричер / Jack Reacher (Кристофер МакКуорри, Боевик, триллер, криминал, ...
  • Джек Ричер / Jack Reacher (Кристофер МакКуорри, боевик, триллер, криминал, ...
  • Джек Ричер / Jack Reacher (Кристофер МакКуорри, Боевик, триллер, криминал, ...
  • Джек Ричер / Jack Reacher (Кристофер МакКуорри, Боевик, триллер, криминал, ...
  • Джек Ричер / Jack Reacher (Кристофер МакКуорри, Боевик, триллер, криминал, ...
  • Убей ради меня / Kill for Me (Майкл Гринспен, триллер, драма, 2013) [DVDRip ...
  • Игровая комната / The Playroom (Джулия Дайер, драма, 2012) [HDRip, Оригинал ...
  • Побег / Flukt (Роар Утхауг, боевик, 2012) [DVDRip-AVC, Любительский (одного ...
  • Челюсти 3D / Shark Night 3D ( Дэвид Р. Эллис, ужасы, 2011) [BDRip-AVC, Проф ...
  • Полководцы / Tau ming chong (Питер Чан, Вэй мэн Йип, боевик, драма, военный ...
  • Тормоз / Brake (Гейб Торрес, триллер, криминал, 2011) [HDRip-AVC, Профессио ...
  • ДухLess (Роман Прыгунов, Драма, 2012) [BDRip-AVC, Не требуется]
  • Облачный атлас / Cloud Atlas (Лана Вачовски, Том Тыквер, Энди Вачовски, фан ...
  • День учителя (Сергей Мокрицкий, драма, 2012) [DVDRip-AVC, Не требуется]
  • Рейдер (Всеволод Аравин, драма, криминал, 2011) [BDRip 720p, оригинал]
  • Супер Майк / Magic Mike (Стивен Содерберг, Драма, комедия, 2012) [BD-Remux ...
  • [Трейлер] Джек Ричер / Jack Reacher (Кристофер МакКуорри, драма, криминал) ...
  • Информация
    Посетители, находящиеся в группе Гости, не могут оставлять комментарии к данной публикации.