вход на сайт

Имя пользователя :
Пароль :

Восстановление пароля Регистрация
Заложница 2 [Театральная версия] / Taken 2 [Theatrical Cut] (Оливье Мегатон, Боевик, триллер, криминал, 2012) [BDRip, Дубляж, Оригинал, Sub]
Рейтинг:
(голосов: 1)



[img]{THEME}/images/logopost.png[/img]



Заложница 2 [Театральная версия] / Taken 2 [Theatrical Cut]
«First they took his daughter. Now theyre coming for him.»

Год выпуска: 2012
Страна: Франция
Производство: Canal+ [fr], Grive Productions, M6 Films
Жанр: Боевик, триллер, криминал

Режиссёр: Оливье Мегатон / Olivier Megaton
В ролях: Лиам Нисон (Bryan Mills), Мэгги Грэйс (Kim), Фамке Янссен (Lenore), Лиленд Орсер (Sam), Джон Грайз (Casey), Д. Б. Суини (Bernie), Люк Граймс (Jamie), Раде Шербеджия (Murad Krasniqi), Кеворк Маликян (Inspector Durmaz), Ален Фиглаж (Suko), Фрэнк Альварез (Car Wash Attendant), Мурат Тунселли (Custom Officer Albania).

Перевод: Дубляж, Оригинал (английский)
Субтитры: русские, английские (forced, SDH) (внешние .srt)

Описание: Брайану Миллсу придется расхлебывать последствия своих действий. Спасая свою дочь, он убил главаря банды, у которого — сюрприз! — есть отец по имени Мурад. Мурад жаждет отмщения и описывается как человек, отдающий приказы, но сам никогда никому не подчиняющийся. Мурад берет в заложники Миллса с супругой, и тут уже Ким Миллс нужно будет спасать своих родителей.



Качество: BDRip | исх: Blu-Ray / 1080p
Продолжительность: 01:32:07 час.

Формат: AVI
Видео кодек: XviD
Аудио кодек: AC3
Видео: 720x304 (2.37:1), 23.976 fps, XviD build 65 ~1803 kbps avg, 0.34 bit/pixel
Аудио #1: 48 kHz, AC3 Dolby Digital, 3/2 (L,C,R,l,r) + LFE ch, ~448.00 kbps avg - (Rus)
Аудио #2: 48 kHz, AC3 Dolby Digital, 3/2 (L,C,R,l,r) + LFE ch, ~448.00 kbps avg - (ENG) отдельно

Дата премьеры (мир): 7 сентября 2012
Дата премьеры (РФ): 4 октября 2012, «Централ Партнершип»

"MediaInfo" ▼Format : AVI
Format/Info : Audio Video Interleave
File size : 1.45 GiB
Duration : 1h 32mn
Overall bit rate : 2 260 Kbps
Movie name : Заложница 2 / Taken 2 [Театральная версия / Theatrical Cut] (2012) BDRip
Director : kingsize87
Writing application : VirtualDubMod 1.5.10.2 (build 2542/release)
Comment : 21.02.2013
Video
ID : 0
Format : MPEG-4 Visual
Format profile : Advanced [email protected]
Format settings, BVOP : 1
Format settings, QPel : No
Format settings, GMC : No warppoints
Format settings, Matrix : Custom
Codec ID : XVID
Codec ID/Hint : XviD
Duration : 1h 32mn
Bit rate : 1 803 Kbps
Width : 720 pixels
Height : 304 pixels
Display aspect ratio : 2.35:1
Frame rate : 23.976 fps
Color space : YUV
Chroma subsampling : 4:2:0
Bit depth : 8 bits
Scan type : Progressive
Compression mode : Lossy
Bits/(Pixel*Frame) : 0.344
Stream size : 1.16 GiB (80%)
Writing library : XviD 65
Audio
ID : 1
Format : AC-3
Format/Info : Audio Coding 3
Mode extension : CM (complete main)
Format settings, Endianness : Big
Codec ID : 2000
Duration : 1h 32mn
Bit rate mode : Constant
Bit rate : 448 Kbps
Channel(s) : 6 channels
Channel positions : Front: L C R, Side: L R, LFE
Sampling rate : 48.0 KHz
Bit depth : 16 bits
Compression mode : Lossy
Stream size : 295 MiB (20%)
Alignment : Split accross interleaves
Interleave, duration : 42 ms (1.00 video frame)
Interleave, preload duration : 500 ms


73dd06363495f2d3213381a0f65931fb1a4461f0Заложница 2 [Театральная версия] / Taken 2 [Theatrical Cut] (Оливье Мегатон, Боевик, триллер, криминал, 2012) [BDRip, Дубляж, Оригинал, Sub] Заложница 2 [Театральная версия] / Taken 2 [Theatrical Cut] (Оливье Мегатон, Боевик, триллер, криминал, 2012) [BDRip, Дубляж, Оригинал, Sub] " />

Аплоадер: Админ, дата: 29-04-2013, 18:49, торрент скачан: 359 раз

Понравилась раздача? Посмотрите эти:
  • Война миров Z [Театральная версия] / World War Z [Theatrical Cut] (Марк Фор ...
  • Безумный Макс 3: Под куполом грома / Mad Max Beyond Thunderdome (Джордж Мил ...
  • Неудержимый / Bullet to the Head (Уолтер Хилл, Боевик, триллер, криминал, 2 ...
  • Поймай толстуху, если сможешь [Театральная версия] / Identity Thief [Theatr ...
  • G.I. Joe: Бросок кобры 2 [Театральная версия] / G.I. Joe: Retaliation [Thea ...
  • G.I. Joe: Бросок кобры 2 [Театральная версия] / G.I. Joe: Retaliation [Thea ...
  • Заложница 2 / Taken 2 (Оливье Мегатон, боевик, триллер, криминал, 2012) [32 ...
  • Железный Кулак [Театральная версия] / The Man with the Iron Fists [Theatric ...
  • Скуби-Ду! Маска Синего Сокола / Scooby-Doo! Mask Of The Blue Falcon (Оливье ...
  • [iPhone, iPod] Заложница 2 / Taken 2 (Оливье Мегатон, боевик, триллер, крим ...
  • Заложница 2 / Taken 2 (Оливье Мегатон, боевик, триллер, криминал, 2012) [HD ...
  • Заложница 2 [Театральная версия] / Taken 2 [Theatrical Cut] (Оливье Мегатон ...
  • Заложница 2 [Театральная версия] / Taken 2 [Theatrical Cut] (Оливье Мегатон ...
  • Заложница 2 [Театральная версия] / Taken 2 [Theatrical Cut] (Оливье Мегатон ...
  • Заложница 2 [Расширенная версия] / Taken 2 [Unrated] (Оливье Мегатон, боеви ...
  • Заложница 2 [Театральная версия] / Taken 2 [Theatrical Cut] (Оливье Мегатон ...
  • Заложница 2 [Театральная версия] / Taken 2 [Theatrical Cut] (Оливье Мегатон ...
  • Заложница 2 [Театральная версия] / Taken 2 [Theatrical Cut] (Оливье Мегатон ...
  • Заложница 2 [2в1: Театральная и Расширенная версии] / Taken 2 [2in1: Theatr ...
  • Заложница 2 | Театральная версия / Taken 2 | Theatrical Cut (Оливье Мегатон ...
  • Заложница 2 | Театральная версия / Taken 2 | Theatrical Cut (Оливье Мегатон ...
  • Диктатор [Театральная версия] / The Dictator [Theatrical Cut] (Ларри Чарльз ...
  • [Трейлер] Заложница 2 / Taken 2 (Оливье Мегатон, боевик, триллер, драма, кр ...
  • [Трейлер] Заложница 2 / Taken 2 (Оливье Мегатон, боевик, триллер, драма, кр ...
  • [Трейлер] Заложница 2 / Taken 2 (Оливье Мегатон, боевик, триллер, драма, кр ...
  • Информация
    Посетители, находящиеся в группе Гости, не могут оставлять комментарии к данной публикации.