вход на сайт

Имя пользователя :
Пароль :

Восстановление пароля Регистрация
Охотники на гангстеров / Gangster Squad (Рубен Флейшер, боевик, триллер, драма, криминал, 2013) [BDRip, Дубляж]
Рейтинг:
(голосов: 1)



[img]{THEME}/images/logopost.png[/img]



•Охотники на гангстеров / Gangster Squad •
«Ни имён. Ни закона. Ни жалости.»
♥ Год выпуска: 2013
♥ Страна: США
♥ Производство: Langley Park Productions, Lin Pictures, Village Roadshow Pictures
♥ Жанр: боевик, триллер, драма, криминал

♥ Режиссёр: Рубен Флейшер
♥ В ролях: Джош Бролин, Райан Гослинг, Ник Нолти, Эмма Стоун,Энтони Маки, Джованни Рибизи, Майкл Пенья, Роберт Патрик, Шон Пенн, Холт МакКэллани

♥ Перевод: Дубляж
♥ Субтитры: Отсутствуют
♥ Описание: Лос-Анджелес, 1949 год. Уроженец Бруклина, жестокий главарь банды Микки Коэн держит город в ежовых рукавицах, собирая «грязные» деньги от торговли наркотиками, оружием и проституции, и — если все пойдет, как надо, — к Западу от Чикаго мышь не пискнет без его ведома. Защищают его не только его же головорезы, но и находящиеся у него «на крючке» полиция и политики. Этого хватит, чтобы запугать даже самых смелых, закаленных улицей копов… кроме, пожалуй, небольшой тайной группы сотрудников полицейского департамента Лос-Анджелеса во главе с сержантом Джоном О’Мара и Джерри Вутерсом, которые объединились, чтобы попытаться уничтожить преступный мир Коэна.



♥ Качество: BDRip | [Исх. Bluray] [Сравнение скриншотов c этой раздачей]
♥ Продолжительность: 01:52:54

♥ Формат: AVI
♥ Видео кодек: XviD
♥ Аудио кодек: AC3
♥ Видео: 720x304 (2.35:1), 23.976 fps, XviD build 65 ~1 456kbps avg, 0.277 bit/pixel
♥ Аудио1: 48 kHz, AC3 Dolby Digital, 3/6 (L,C,R,l,r) + LFE ch, ~384 kbps
♥ Дата премьеры (мир): 9 января 2013
♥ Дата премьеры (РФ): 24 января 2013, «Каро-Премьер»
MediaInfo: ▼Text
General
Complete name : D:Ohotniki_na_Gangsterov_2013_BDRip.avi
Format : AVI
Format/Info : Audio Video Interleave
File size : 1.46 GiB
Duration : 1h 52mn
Overall bit rate : 1 849 Kbps
Writing application : VirtualDubMod 1.5.10.3 | www.virtualdub-fr.org || (build 2550/release)
Writing library : VirtualDubMod build 2550/release
Video #0
ID : 0
Format : MPEG-4 Visual
Format profile : Advanced [email protected]
Format settings, BVOP : 1
Format settings, QPel : No
Format settings, GMC : No warppoints
Format settings, Matrix : Custom
Codec ID : XVID
Codec ID/Hint : XviD
Duration : 1h 52mn
Bit rate : 1 456 Kbps
Width : 720 pixels
Height : 304 pixels
Display aspect ratio : 2.35:1
Frame rate : 23.976 fps
Color space : YUV
Chroma subsampling : 4:2:0
Bit depth : 8 bits
Scan type : Progressive
Compression mode : Lossy
Bits/(Pixel*Frame) : 0.277
Stream size : 1.15 GiB (79%)
Writing library : XviD 73
Audio #1
ID : 1
Format : AC-3
Format/Info : Audio Coding 3
Mode extension : CM (complete main)
Format settings, Endianness : Big
Codec ID : 2000
Duration : 1h 52mn
Bit rate mode : Constant
Bit rate : 384 Kbps
Channel(s) : 6 channels
Channel positions : Front: L C R, Side: L R, LFE
Sampling rate : 48.0 KHz
Bit depth : 16 bits
Compression mode : Lossy
Stream size : 310 MiB (21%)
Alignment : Split accross interleaves
Interleave, d
43cdd06f1a565231067ca0fe1dbdb72b1ca083a1Охотники на гангстеров / Gangster Squad (Рубен Флейшер, боевик, триллер, драма, криминал, 2013) [BDRip, Дубляж] Охотники на гангстеров / Gangster Squad (Рубен Флейшер, боевик, триллер, драма, криминал, 2013) [BDRip, Дубляж] " />

Аплоадер: Админ, дата: 27-04-2013, 14:17, торрент скачан: 359 раз

Понравилась раздача? Посмотрите эти:
  • Вирус / Flu (Ким Сон Су, Драма, 2013) [HDTVRip, Любительский (двухголосый з ...
  • Орудие смерти / A-i-deul... (Ли Гю Ман, Триллер, криминал, 2011) [DVDRip, П ...
  • Война миров Z [Театральная версия] / World War Z [Theatrical Cut] (Марк Фор ...
  • Охотники на гангстеров / Gangster Squad (Рубен Флейшер, Боевик, триллер, др ...
  • Возвращение героя / The Last Stand (Ким Чжи-ун, Боевик, триллер, криминал, ...
  • 42 / 42 (Брайан Хелгеленд, драма, биография, спорт, 2013) [BDRip, Профессио ...
  • Неудержимый / Bullet to the Head (Уолтер Хилл, Боевик, триллер, криминал, 2 ...
  • Поймай толстуху, если сможешь [Театральная версия] / Identity Thief [Theatr ...
  • [iPad] Охотники на гангстеров / Gangster Squad (2013) [HDRip] (Шон Пенн, де ...
  • Охотники на гангстеров / Gangster Squad (Рубен Флейшер, Боевик, триллер, др ...
  • Охотники на гангстеров / Gangster Squad (Рубен Флейшер, боевик, триллер, др ...
  • Охотники на гангстеров / Gangster Squad (Рубен Флейшер,боевик, триллер, дра ...
  • Охотники на гангстеров / Gangster Squad (Рубен Флейшер,боевик, триллер, дра ...
  • Охотники на гангстеров / Gangster Squad (Рубен Флейшер, Боевик, триллер, др ...
  • Охотники на гангстеров / Gangster Squad (Рубен Флейшер, боевик, триллер, др ...
  • Охотники на гангстеров / Gangster Squad (Рубен Флейшер, боевик, триллер, др ...
  • Охотники на гангстеров / Gangster Squad (Рубен Флейшер, Боевик, триллер, др ...
  • Охотники на гангстеров / Gangster Squad (Рубен Флейшер, Боевик, триллер, др ...
  • Охотники на гангстеров / Gangster Squad (Рубен Флейшер, боевик, триллер, др ...
  • Охотники на гангстеров / Gangster Squad (Рубен Флейшер, Боевик, триллер, др ...
  • Охотники на гангстеров / Gangster Squad (Рубен Флейшер, Боевик, триллер, др ...
  • [iPhone, iPod] Охотники на гангстеров / Gangster Squad (Рубен Флейшер, боев ...
  • Охотники на гангстеров / Gangster Squad (Рубен Флейшер, боевик, триллер, др ...
  • Захват / Carjacked (Джон Бонито, триллер, 2011)[BDRip, Профессиональный (мн ...
  • [Трейлер] Охотники на гангстеров / Gangster Squad (Рубен Флейшер, боевик, ...
  • Информация
    Посетители, находящиеся в группе Гости, не могут оставлять комментарии к данной публикации.