вход на сайт

Имя пользователя :
Пароль :

Восстановление пароля Регистрация
Охотники на гангстеров / Gangster Squad (Рубен Флейшер, боевик, триллер, драма, криминал, 2013) [BDRip, Дубляж]
Рейтинг:
(голосов: 1)



[img]{THEME}/images/logopost.png[/img]



•Охотники на гангстеров / Gangster Squad •
«Ни имён. Ни закона. Ни жалости.»
♥ Год выпуска: 2013
♥ Страна: США
♥ Производство: Langley Park Productions, Lin Pictures, Village Roadshow Pictures
♥ Жанр: боевик, триллер, драма, криминал

♥ Режиссёр: Рубен Флейшер
♥ В ролях: Джош Бролин, Райан Гослинг, Ник Нолти, Эмма Стоун,Энтони Маки, Джованни Рибизи, Майкл Пенья, Роберт Патрик, Шон Пенн, Холт МакКэллани

♥ Перевод: Дубляж
♥ Субтитры: Отсутствуют
♥ Описание: Лос-Анджелес, 1949 год. Уроженец Бруклина, жестокий главарь банды Микки Коэн держит город в ежовых рукавицах, собирая «грязные» деньги от торговли наркотиками, оружием и проституции, и — если все пойдет, как надо, — к Западу от Чикаго мышь не пискнет без его ведома. Защищают его не только его же головорезы, но и находящиеся у него «на крючке» полиция и политики. Этого хватит, чтобы запугать даже самых смелых, закаленных улицей копов… кроме, пожалуй, небольшой тайной группы сотрудников полицейского департамента Лос-Анджелеса во главе с сержантом Джоном О’Мара и Джерри Вутерсом, которые объединились, чтобы попытаться уничтожить преступный мир Коэна.



♥ Качество: BDRip | [Исх. Bluray] [Сравнение скриншотов c этой раздачей]
♥ Продолжительность: 01:52:54

♥ Формат: AVI
♥ Видео кодек: XviD
♥ Аудио кодек: MP3
♥ Видео: 688x288 (2.40:1), 23.976 fps, XviD build 50 ~786kbps avg, 0.165 bit/pixel
♥ Аудио1: 48 kHz, MPEG Layer 3, 2 ch, ~128.00 kbps avg
♥ Дата премьеры (мир): 9 января 2013
♥ Дата премьеры (РФ): 24 января 2013, «Каро-Премьер»
MediaInfo: ▼Text
General
Complete name : D:Ohotniki_na_Gangsterov_2013_BDRip_745.avi
Format : AVI
Format/Info : Audio Video Interleave
File size : 746 MiB
Duration : 1h 52mn
Overall bit rate : 923 Kbps
Writing application : VirtualDubMod 1.5.10.3 | www.virtualdub-fr.org || (build 2550/release)
Writing library : VirtualDubMod build 2550/release
Video #0
ID : 0
Format : MPEG-4 Visual
Format profile : Advanced [email protected]
Format settings, BVOP : 1
Format settings, QPel : No
Format settings, GMC : No warppoints
Format settings, Matrix : Custom
Codec ID : XVID
Codec ID/Hint : XviD
Duration : 1h 52mn
Bit rate : 786 Kbps
Width : 688 pixels
Height : 288 pixels
Display aspect ratio : 2.40:1
Frame rate : 23.976 fps
Color space : YUV
Chroma subsampling : 4:2:0
Bit depth : 8 bits
Scan type : Progressive
Compression mode : Lossy
Bits/(Pixel*Frame) : 0.165
Stream size : 635 MiB (85%)
Writing library : XviD 73
Audio #1
ID : 1
Format : MPEG Audio
Format version : Version 1
Format profile : Layer 3
Codec ID : 55
Codec ID/Hint : MP3
Duration : 1h 52mn
Bit rate mode : Constant
Bit rate : 128 Kbps
Channel(s) : 2 channels
Sampling rate : 48.0 KHz
Compression mode : Lossy
Stream size : 103 MiB (14%)
Alignment : Aligned on interleaves
Interleave, duration : 42 ms (1.00 video frame)
Interleave, preload duration : 504 ms
Writing library : LAME3.99r
&nb
2c1a801e9fe96832153f595bc90349318a1fd563Охотники на гангстеров / Gangster Squad (Рубен Флейшер, боевик, триллер, драма, криминал, 2013) [BDRip, Дубляж] Охотники на гангстеров / Gangster Squad (Рубен Флейшер, боевик, триллер, драма, криминал, 2013) [BDRip, Дубляж] " />

Аплоадер: Админ, дата: 26-04-2013, 19:45, торрент скачан: 359 раз

Понравилась раздача? Посмотрите эти:
  • Погнали! / Getaway (Кортни Соломон, Боевик,Криминал, 2013) [HDRip, Професси ...
  • Охотники на гангстеров / Gangster Squad (Рубен Флейшер, Боевик, триллер, др ...
  • Решала (Роман Асхаев, Драма,Криминал, 2012) [WEB-DLRip, Не требуется]
  • [iPad] Охотники на гангстеров / Gangster Squad (2013) [HDRip] (Шон Пенн, де ...
  • Берлинское дело / The Berlin File (Рю Сын Ван, Боевик, триллер, драма, 2013 ...
  • Чемпионат Италии 2012-13 / 36-й тур / Рома — Кьево / НТВ+ [07.05.2013, SD, ...
  • Охотники на гангстеров / Gangster Squad (Рубен Флейшер, Боевик, триллер, др ...
  • Охотники на гангстеров / Gangster Squad (Рубен Флейшер, боевик, триллер, др ...
  • Охотники на гангстеров / Gangster Squad (Рубен Флейшер,боевик, триллер, дра ...
  • Охотники на гангстеров / Gangster Squad (Рубен Флейшер,боевик, триллер, дра ...
  • Охотники на гангстеров / Gangster Squad (Рубен Флейшер, Боевик, триллер, др ...
  • Охотники на гангстеров / Gangster Squad (Рубен Флейшер, боевик, триллер, др ...
  • Охотники на гангстеров / Gangster Squad (Рубен Флейшер, Боевик, триллер, др ...
  • Охотники на гангстеров / Gangster Squad (Рубен Флейшер, боевик, триллер, др ...
  • Охотники на гангстеров / Gangster Squad (Рубен Флейшер, Боевик, триллер, др ...
  • Охотники на гангстеров / Gangster Squad (Рубен Флейшер, боевик, триллер, др ...
  • Охотники на гангстеров / Gangster Squad (Рубен Флейшер, Боевик, триллер, др ...
  • Охотники на гангстеров / Gangster Squad (Рубен Флейшер, Боевик, триллер, др ...
  • [iPhone, iPod] Охотники на гангстеров / Gangster Squad (Рубен Флейшер, боев ...
  • Охотники на гангстеров / Gangster Squad (Рубен Флейшер, боевик, триллер, др ...
  • Чемпионат Европы 2012 / Группа D / 1-й тур / Украина - Швеция / Спорт 1 [11 ...
  • Олимпиада 2012 / Мужчины / Группа D / 1-й тур / Испания — Япония / НТВ+ [Фу ...
  • Страх / Fear (Джеймс Фоули, ужасы, триллер, драма, 1996) [BDRip, Дубляж]
  • Чемпионат Европы 2012 / Группа B / 1-й тур / Германия - Португалия / Спорт ...
  • [Трейлер] Охотники на гангстеров / Gangster Squad (Рубен Флейшер, боевик, ...
  • Информация
    Посетители, находящиеся в группе Гости, не могут оставлять комментарии к данной публикации.