вход на сайт

Имя пользователя :
Пароль :

Восстановление пароля Регистрация
Код апокалипсиса (Вадим Шмелев, боевик, приключения, 2007) [BDRip, Не требуется]
Рейтинг:
(голосов: 1)



[img]{THEME}/images/logopost.png[/img]



•Код апокалипсиса •
♥ Год выпуска: 2007
♥ Страна: Россия
♥ Производство: Alligator Reklamefilm, BS Graphics, C.R.G. International.
♥ Жанр: боевик, приключения

♥ Режиссёр: Вадим Шмелев
♥ В ролях: Анастасия Заворотнюк, Венсан Перес, Владимир Меньшов, Алексей Серебряков, Олег Штефанко, Оскар Кучера, Сергей Газаров, Борис Токарев, Георгий Тесля-Герасимов, Анжелика Асланян, Александр Цуркан, Анатолий Котенев, Сергей Перебоев

♥ Перевод: Не требуется
♥ Субтитры: Отсутствуют
♥ Описание: Террорист № 1 Джаффад Бен Зайиди похитил с затонувшей американской подлодки четыре ядерные боеголовки, спрятав их в крупнейших мегаполисах мира. Заряд активируется одиннадцатизначным кодом, узнать который можно лишь собрав воедино цифры, известные трем приближенным Джаффада, которых никто не видел в лицо.
Но террориста убивают при странных обстоятельствах, а его бывший напарник по прозвищу Палач намерен привести бомбы в действие. По его следу пускаются объединившие усилия ФСБ и ЦРУ, чей агент Мари несколько лет назад внедрилась в группировку Джаффада. Теперь под новой легендой ей предстоит спасти мир.



♥ Качество: BDRip
♥ Продолжительность: 01:50:01 час.

♥ Формат: AVI
♥ Видео кодек: XviD
♥ Аудио кодек: AC3
♥ Видео: 720x304 (2.35:1), 24 fps, XviD build 65, 1 437 kbps avg, 0.274 bit/pixel
♥ Аудио: 48 kHz, AC3 6 ch, Front: L C R, Side: L R, LFE , ~448 kbps avg
♥ Дата премьеры (мир): 4 октября 2007
♥ Дата премьеры (РФ): 4 октября 2007, «Каропрокат»
MediaInfo: ▼
Text
General
Complete name : D:KoD.Apokalipsisa.2007.O.BDRip.XviD..avi
Format : AVI
Format/Info : Audio Video Interleave
File size : 1.46 GiB
Duration : 1h 50mn
Overall bit rate : 1 894 Kbps
Movie name : KoD.Apokalipsisa,2007.O.BDRip.XviD.
Writing application : VirtualDubMod 1.5.10.3 | www.virtualdub-fr.org || (build 2550/release)
Video #0
ID : 0
Format : MPEG-4 Visual
Format profile : Advanced [email protected]
Format settings, BVOP : 1
Format settings, QPel : No
Format settings, GMC : No warppoints
Format settings, Matrix : Custom
Codec ID : XVID
Codec ID/Hint : XviD
Duration : 1h 50mn
Bit rate : 1 437 Kbps
Width : 720 pixels
Height : 304 pixels
Display aspect ratio : 2.35:1
Frame rate : 23.976 fps
Color space : YUV
Chroma subsampling : 4:2:0
Bit depth : 8 bits
Scan type : Progressive
Compression mode : Lossy
Bits/(Pixel*Frame) : 0.274
Stream size : 1.10 GiB (76%)
Writing library : XviD 1.2.1 (UTC 2008-12-04)
Audio #1
ID : 1
Format : AC-3
Format/Info : Audio Coding 3
Mode extension : CM (complete main)
Format settings, Endianness : Big
Codec ID : 2000
Duration : 1h 50mn
Bit rate mode : Constant
Bit rate : 448 Kbps
Channel(s) : 6 channels
Channel positions : Front: L C R, Side: L R, LFE
Sampling rate : 48.0 KHz
Bit depth : 16 bits
Compression mode : Lossy
Stream size : 353 MiB (24%)
Alignment : Split accross interleaves
Interleave, duration : 42 ms (1.00 video frame)
Interleave, pr
b346428ab722063cf7b781f580564bc8d21a7f39Код апокалипсиса (Вадим Шмелев, боевик, приключения, 2007) [BDRip, Не требуется] Код апокалипсиса (Вадим Шмелев, боевик, приключения, 2007) [BDRip, Не требуется] " />

Аплоадер: Админ, дата: 22-04-2013, 13:00, торрент скачан: 359 раз

Понравилась раздача? Посмотрите эти:
  • Вирус / Flu (Ким Сон Су, Драма, 2013) [HDTVRip, Любительский (двухголосый з ...
  • Марафон (Карен Оганесян, комедия, 2013) [WEB-DLRip, Не требуется]
  • Верное дельце / Une pure affaire (Александр Коффре, Боевик, Комедия, Кримин ...
  • Мои герои / Mes heros (Эрик Беснард, комедия, 2012) [HDRip, Профессиональны ...
  • Икона сезона (Сергей Швыдкой,Драма, комедия, 2013) [DVDRip, Не требуется]
  • Возвращение героя / The Last Stand (Ким Чжи-ун, Боевик, триллер, криминал, ...
  • Безумный Макс 3: Под куполом грома / Mad Max Beyond Thunderdome (Джордж Мил ...
  • Безумный Макс 3: Под куполом грома / Mad Max Beyond Thunderdome (Джордж Мил ...
  • Мужество / Wymyk (Грег Зглински, драма, 2011) [DVDRip, Любительский (одного ...
  • 42 / 42 (Брайан Хелгеленд, драма, биография, спорт, 2013) [BDRip, Профессио ...
  • Поймай толстуху, если сможешь [Театральная версия] / Identity Thief [Theatr ...
  • Решала (Роман Асхаев, Драма,Криминал, 2012) [WEB-DLRip, Не требуется]
  • Звук моего голоса / Sound of My Voice (Зал Батманглидж, триллер, драма, 201 ...
  • 23:59 / 23:59 (Гилберт Чан, Ужасы, 2011) [HDRip, Любительский (одноголосый ...
  • Псы войны / The Dogs of War (Джон Ирвин, боевик, драма, приключения, военны ...
  • Супер циклон / Super Cyclone (Лиз Адамс / Liz Adams, боевик, 2012) [HDRip, ...
  • Захват / Carjacked (Джон Бонито, триллер, 2011)[BDRip, Профессиональный (мн ...
  • Tank Feat. T.I. & Kris Stephens / Compliments [2012, RnB,Hip-Hop, HDRip]
  • Три богатыря на дальних берегах (Константин Феоктистов, мультфильм, комедия ...
  • Код апокалипсиса (Вадим Шмелев, боевик,приключения, 2007) [HDRip, оригинал] ...
  • Временная петля / Los cronocrímenes (Начо Вигалондо, фантастика, боевик, тр ...
  • Трус / Faintheart (Вито Рокко, Комедия, 2008) [BDRip, Профессиональный (дву ...
  • Супершторм в Сиэтле / Seattle Superstorm (Джейсон Бурк, фантастика, боевик ...
  • Товарищеский матч 2012 / АмаЗулу (ЮАР) - Манчестер Юнайтед (Англия) / MU TV ...
  • Олимпиада 2012 / Женщины, Мужчины / Плавание / Квалификация / НТВ+ [30.07.2 ...
  • Информация
    Посетители, находящиеся в группе Гости, не могут оставлять комментарии к данной публикации.