вход на сайт

Имя пользователя :
Пароль :

Восстановление пароля Регистрация
Паркер / Parker (Тейлор Хэкфорд, Боевик, триллер, криминал, 2013) [BDRip-AVC, Профессиональный (полное дублирование) + SUB]
Рейтинг:
(голосов: 1)



[img]{THEME}/images/logopost.png[/img]



Паркер / Parker
«To get away clean, you have to play dirty.»

Год выпуска: 2013
Страна: США
Производство: Mitchell Productions, Anvil Films, Current Entertainment, Incentive Filmed Entertainment, Sidney Kimmel Entertainment, Sierra Pictures (III)
Жанр: боевик, триллер, криминал

Режиссёр: Тейлор Хэкфорд
В ролях: Джейсон Стэйтем, Дженнифер Лопез, Майкл Чиклис, Уенделл Пирс, Клифтон Коллинз мл., Бобби Каннавале, Пэтти ЛюПон, Карлос Карраско, Мика А. Хауптман, Эмма Бут

Перевод: Профессиональный (полное дублирование)
Субтитры: Русские, Английские

Описание: Главный герой — профессиональный вор, руководствующийся собственным моральным кодексом, но способный запросто отправить на тот свет любого, кто перейдет ему дорогу.



Качество: BDRip-AVC => Сэмпл | исх. Паркер / Parker (2013) BD-Remux -BLUEBIRD
Продолжительность: 01:58:40 час

Формат: MKV
Видео кодек: H.264
Аудио кодек:AC3
Видео: 960х400 (2,40:1), 23,976 fps, H.264 ~1 368 kbps avg, 0.149 bit/pixel
Аудио: 48 kHz, AC3, 3/2 (L,C,R,l,r) + LFE ch, ~384.00 kbps avg | Профессиональный (полное дублирование)

Премьера (мир) - 12 октября 2012
Премьера (РФ) - 31 января 2013, «Централ Партнершип»

MediaInfo ▼Общее
Уникальный идентификатор : 234595269522954413911555652404246595811 (0xB07D67CAD2B80E7C85EEBA320CB1C8E3)
Полное имя : B:Паркер-Parker.(2012).BDRip.[H.264]_1.46.mkv
Формат : Matroska
Версия формата : Version 4 / Version 2
Размер файла : 1,45 Гбайт
Продолжительность : 1 ч. 58 м.
Общий поток : 1753 Кбит/сек
Название фильма : Паркер / Parker (2013) BDRip by y607ce / nnm-club.ru
Дата кодирования : UTC 2013-05-08 06:10:24
Программа кодирования : mkvmerge v6.2.0 (Promised Land) built on Apr 28 2013 12:22:01
Библиотека кодирования : libebml v1.3.0 + libmatroska v1.4.0

Видео
Идентификатор : 1
Формат : AVC
Формат/Информация : Advanced Video Codec
Профиль формата : [email protected]
Параметр CABAC формата : Да
Параметр ReFrames формата : 11 кадров
Идентификатор кодека : V_MPEG4/ISO/AVC
Продолжительность : 1 ч. 58 м.
Битрейт : 1368 Кбит/сек
Ширина : 960 пикселей
Высота : 400 пикселей
Соотношение сторон : 2,40:1
Режим частоты кадров : Постоянный
Частота кадров : 23,976 кадра/сек
Цветовое пространство : YUV
Субдискретизация насыщенности : 4:2:0
Битовая глубина : 8 бит
Тип развёртки : Прогрессивная
Бит/(Пиксели*Кадры) : 0.149
Размер потока : 1,11 Гбайт (76%)
Заголовок : Паркер / Parker (2013) BDRip [H.264]
Библиотека кодирования : x264 core 130 r2273 b3065e6
Настройки программы : cabac=1 / ref=12 / deblock=1:-2:-2 / analyse=0x3:0x133 / me=esa / subme=11 / psy=1 / psy_rd=1.00:0.00 / mixed_ref=0 / me_range=32 / chroma_me=1 / trellis=2 / 8x8dct=1 / cqm=0 / deadzone=21,11 / fast_pskip=1 / chroma_qp_offset=-2 / threads=12 / lookahead_threads=3 / sliced_threads=0 / nr=0 / decimate=1 / interlaced=0 / bluray_compat=0 / constrained_intra=0 / bframes=12 / b_pyramid=1 / b_adapt=2 / b_bias=0 / direct=3 / weightb=1 / open_gop=0 / weightp=2 / keyint=250 / keyint_min=23 / scenecut=40 / intra_refresh=0 / rc_lookahead=60 / rc=2pass / mbtree=1 / bitrate=1368 / ratetol=1.0 / qcomp=0.60 / qpmin=0 / qpmax=69 / qpstep=4 / cplxblur=20.0 / qblur=0.5 / ip_ratio=1.40 / aq=2:1.00
Язык : English
Default : Да
Forced : Нет

Аудио
Идентификатор : 2
Формат : AC-3
Формат/Информация : Audio Coding 3
Расширение режима : CM (complete main)
Параметр Endianness формата : Big
Идентификатор кодека : A_AC3
Продолжительность : 1 ч. 58 м.
Вид битрейта : Постоянный
Битрейт : 384 Кбит/сек
Каналы : 6 каналов
Расположение каналов : Front: L C R, Side: L R, LFE
Частота : 48,0 КГц
Битовая глубина : 16 бит
Метод сжатия : С потерями
Размер потока : 326 Мбайт (22%)
Заголовок : Дубляж
Язык : Russian
Default : Да
Forced : Нет

Текст #1
Идентификатор : 3
Формат : UTF-8
Идентификатор кодека : S_TEXT/UTF8
Идентификатор кодека/Информация : UTF-8 Plain Text
Заголовок : (Voronine)
Язык : Russi
9b68185124ad44e06145d9b7f61bd477bd9d3ad8Паркер / Parker (Тейлор Хэкфорд, Боевик, триллер, криминал, 2013) [BDRip-AVC, Профессиональный (полное дублирование) + SUB] Паркер / Parker (Тейлор Хэкфорд, Боевик, триллер, криминал, 2013) [BDRip-AVC, Профессиональный (полное дублирование) + SUB] " />

Аплоадер: Админ, дата: 9-05-2013, 12:54, торрент скачан: 359 раз

Понравилась раздача? Посмотрите эти:
  • Паркер / Parker (Тейлор Хэкфорд, Боевик, триллер, криминал, 2013) [HDRip, ...
  • Паркер / Parker (Тейлор Хэкфорд, Боевик, триллер, криминал, 2013) [Blu-ray ...
  • Паркер / Parker (Тейлор Хэкфорд, боевик, триллер, криминал, 2013) [BDRip-AV ...
  • Паркер / Parker (Тейлор Хэкфорд, Боевик, триллер, криминал, 2013) [BDRip, ...
  • [LT]+[EN] Паркер / Parker (Тейлор Хэкфорд, боевик, триллер, криминал, 2013) ...
  • Паркер / Parker (Тейлор Хэкфорд, Боевик, триллер, криминал, 2013) [BDRip 7 ...
  • Паркер / Parker (Тейлор Хэкфорд, Боевик, триллер, криминал, 2013) [BDRip 1 ...
  • Паркер / Parker (Тейлор Хэкфорд, Боевик, триллер, криминал, 2013) [BDRip-A ...
  • Паркер / Parker (Тейлор Хэкфорд, боевик, триллер, криминал, 2013) [HDRip-AV ...
  • Паркер / Parker (Тейлор Хэкфорд, Боевик, триллер, криминал, 2013) [BDRip, ...
  • Паркер / Parker (Тейлор Хэкфорд, Боевик, триллер, криминал, 2013) [BDRip, ...
  • Паркер / Parker (Тейлор Хэкфорд / Taylor Hackford, Боевик, триллер, кримина ...
  • Паркер / Parker (Тейлор Хэкфорд, Боевик, триллер, криминал, 2013) [BDRip, ...
  • Паркер / Parker (Тейлор Хэкфорд, Боевик, триллер, криминал, 2013) [BDRip, ...
  • [iPhone, iPod] Паркер / Parker (Тейлор Хэкфорд, боевик, триллер, криминал, ...
  • Паркер / Parker (Тейлор Хэкфорд / Taylor Hackford, Боевик, триллер, кримина ...
  • Паркер / Parker (Тейлор Хэкфорд, Боевик, триллер, криминал, 2013) [DVD9, Д ...
  • Паркер / Parker (Тейлор Хэкфорд, боевик, триллер, криминал, 2013) [320x240] ...
  • [Трейлер] Паркер / Parker (Тейлор Хэкфорд, триллер, криминал) [HDRip, Дубли ...
  • [Трейлер] Паркер / Parker (Тейлор Хэкфорд, триллер, криминал, 2013) [HDTVRi ...
  • Информация
    Посетители, находящиеся в группе Гости, не могут оставлять комментарии к данной публикации.