вход на сайт

Имя пользователя :
Пароль :

Восстановление пароля Регистрация
Крепкий орешек: Хороший день, чтобы умереть [Расширенная версия] / A Good Day to Die Hard [UNRATED] (Джон Мур, Боевик, триллер, криминал, 2013) [BDRip, Дубляж]
Рейтинг:
(голосов: 1)



[img]{THEME}/images/logopost.png[/img]



Крепкий орешек: Хороший день, чтобы умереть [Расширенная версия] / A Good Day to Die Hard [UNRATED]
«Яблоко от яблони»

Год выпуска: 2013
Страна: США
Производство:20th Century Fox Film Corporation, Dune Entertainment, Giant Pictures
Жанр: Боевик, триллер, криминал

Режиссёр: Джон Мур
В ролях: Брюс Уиллис, Джай Кортни, Себастьян Кох, Юлия Снигирь, Радивойе Буквич, Сергей Колесников, Мэри Элизабет Уинстэд, Коул Хаузер, Амори Ноласко, Роман Лукнар.

Перевод: Дубляж
Доп. информация: EXTENDED версия! Полный перевод!
Субтитры: Отсутствуют

Описание: Джон МакКлейн прибывает в Москву, чтобы вызволить из тюрьмы своего непредсказуемого сына, но холодная голова и железные мускулы вязнут в паутине российской действительности. Дело, в которое влип МакКлейн-младший, оказывается настолько «опасной трясиной», что отцу и сыну, чтобы выжить и в очередной раз спасти мир, приходится объединить свои усилия, забыв прежние, казалось бы, непреодолимые разногласия.



Качество: BDRip |Сравнение скриншотов с этой раздачей | Сэмпл |
Продолжительность: 01:41:11 час.


Формат: AVI
Видео кодек: XviD
Аудио кодек: AC3
Видео: 704x384 (1.85:1), 23.976 fps, XviD build 65 ~1677 kbps avg, 0.259 bit/pixel
Аудио: 48 kHz, AC3 Dolby Digital, 3/2 (L,C,R,l,r) + LFE ch, ~384 kbps avg - (DUB)

Дата премьеры (мир): 7 февраля 2013
Дата премьеры (РФ): 14 февраля 2013, «Двадцатый Век Фокс СНГ»

MediaInfo ▼General
Complete name : DA.Good.Day.to.Die.Hard.2013.Extended.Dub.1.46,Gb.BDRip.XviD.AC3.avi
Format : AVI
Format/Info : Audio Video Interleave
File size : 1.46 GiB
Duration : 1h 41mn
Overall bit rate : 2 070 Kbps
Writing application : VirtualDubModRus 1.5.10.2 (build 2542/release)
Writing library : VirtualDubMod build 2542/release

Video
ID : 0
Format : MPEG-4 Visual
Format profile : Advanced [email protected]
Format settings, BVOP : 1
Format settings, QPel : No
Format settings, GMC : No warppoints
Format settings, Matrix : Custom
Codec ID : XVID
Codec ID/Hint : XviD
Duration : 1h 41mn
Bit rate : 1 677 Kbps
Width : 704 pixels
Height : 384 pixels
Display aspect ratio : 1.85:1
Frame rate : 23.976 fps
Color space : YUV
Chroma subsampling : 4:2:0
Bit depth : 8 bits
Scan type : Progressive
Compression mode : Lossy
Bits/(Pixel*Frame) : 0.259
Stream size : 1.19 GiB (81%)
Writing library : XviD 65

Audio
ID : 1
Format : AC-3
Format/Info : Audio Coding 3
Mode extension : CM (complete main)
Format settings, Endianness : Big
Codec ID : 2000
Duration : 1h 41mn
Bit rate mode : Constant
Bit rate : 384 Kbps
Channel(s) : 6 channels
Channel positions : Front: L C R, Side: L R, LFE
Sampling rate : 48.0 KHz
Bit depth : 16 bits
Compression mode : Lossy
Stream size : 278 MiB (19%)
Alignment : Split accross interleaves
Interleave, duration : 42 ms (1.00 video frame)
Interleave, preload duration : 500 ms
Title : Dub R5







a39642b379d324dc0fd907d11a0f88674093aaffКрепкий орешек: Хороший день, чтобы умереть [Расширенная версия] / A Good Day to Die Hard [UNRATED] (Джон Мур, Боевик, триллер, криминал, 2013) [BDRip, Дубляж] Крепкий орешек: Хороший день, чтобы умереть [Расширенная версия] / A Good Day to Die Hard [UNRATED] (Джон Мур, Боевик, триллер, криминал, 2013) [BDRip, Дубляж] " />

Аплоадер: Админ, дата: 24-05-2013, 16:53, торрент скачан: 359 раз

Понравилась раздача? Посмотрите эти:
  • Война миров Z [Театральная версия] / World War Z [Theatrical Cut] (Марк Фор ...
  • Крепкий орешек: Хороший день, чтобы умереть / A Good Day to Die Hard (Джон ...
  • [Phone, iPod] Крепкий орешек: Хороший день, чтобы умереть / A Good Day to D ...
  • Крепкий орешек: Хороший день, чтобы умереть [Расширенная версия] / A Good D ...
  • Неудержимый / Bullet to the Head (Уолтер Хилл, Боевик, триллер, криминал, 2 ...
  • Поймай толстуху, если сможешь [Театральная версия] / Identity Thief [Theatr ...
  • Крепкий орешек: Хороший день, чтобы умереть [Расширенная версия] / A Good D ...
  • Крепкий орешек: Хороший день, чтобы умереть [Театральная версия] / A Good D ...
  • Крепкий орешек: Хороший день, чтобы умереть [Расширенная версия] / A Good D ...
  • Крепкий орешек: Хороший день, чтобы умереть [Расширенная версия] / A Good D ...
  • Крепкий орешек: Хороший день, чтобы умереть / A Good Day to Die Hard (Джон ...
  • Крепкий орешек: Хороший день, чтобы умереть [Расширенная версия] / A Good D ...
  • Крепкий орешек: Хороший день, чтобы умереть / A Good Day to Die Hard (Джон ...
  • Крепкий орешек: Хороший день, чтобы умереть / A Good Day to Die Hard (Джон ...
  • Крепкий орешек: Хороший день, чтобы умереть [Расширенная версия] / A Good D ...
  • Крепкий орешек: Хороший день, чтобы умереть [Расширенная версия] / A Good D ...
  • Крепкий орешек: Хороший день, чтобы умереть [Расширенная версия] / A Good D ...
  • Крепкий орешек: Хороший день, чтобы умереть / A Good Day to Die Hard (Джон ...
  • Крепкий орешек: Хороший день, чтобы умереть [Театральная версия] / A Good D ...
  • Крепкий орешек: Хороший день, чтобы умереть / A Good Day to Die Hard [EXTEN ...
  • Крепкий орешек: Хороший день, чтобы умереть / A Good Day to Die Hard (Джон ...
  • Крепкий орешек: Хороший день, чтобы умереть / A Good Day to Die Hard (Джон ...
  • Крепкий орешек: Хороший день, чтобы умереть / A Good Day to Die Hard (Джон ...
  • Крепкий орешек [Квадрология] / Die Hard [Quadrilogy] (Джон МакТирнан, Ренни ...
  • [Трейлер] Крепкий орешек 5. Хороший день, чтобы умереть / A Good Day to Die ...
  • Информация
    Посетители, находящиеся в группе Гости, не могут оставлять комментарии к данной публикации.