вход на сайт

Имя пользователя :
Пароль :

Восстановление пароля Регистрация
РЭД / RED (Роберт Швентке, боевик, комедия, криминал, 2010 г.) [HDRip-AVC, Дублированный + Оригинал, Subs]
Рейтинг:
(голосов: 1)



[img]{THEME}/images/logopost.png[/img]



РЭД / RED
«Бывших агентов не бывает»

Год выпуска: 2010
Страна: США
Производство: DC Entertainment, Di Bonaventura Pictures, Summit Entertainment
Жанр: Боевик, комедия, криминал

Режиссёр: Роберт Швентке
В ролях: Брюс Уиллис, Джон Малкович, Морган Фриман, Хелен Миррен, Мэри-Луиз Паркер, Карл Урбан, Брайан Кокс, Ричард Дрейфусс, Ребекка Пиджон, Крис Оуен и др.

Перевод: Профессиональный (полное дублирование) + Оригинал (английский)
Субтитры: Русские, Английские (вшитые)

Описание: Фрэнк Мозес, экс-агент супергруппы ЦРУ, живет теперь мирной и тихой жизнью. Но прошлое настигает его: как-то утром загадочный киллер пытается лишить его жизни. Опытный Фрэнк, конечно, сумел увернуться от пули, но сразу понял, что дело «табак». Кто же поможет справиться с командой ликвидаторов? Конечно, бывшие напарники: харизматичный Джо Мэтисон и параноик Марвин Боггс. Прекрасный повод тряхнуть стариной!



Качество: HDRip-AVC
Продолжительность: 01:59:09 час.

Формат: MKV
Видео кодек: H.264
Аудио кодек: AC-3
Видео: 1152*480 (2.40:1), 23.976 fps, AVC([email protected]) ~ 2044 kbps avg, 0.154 bit/pixel
Аудио: 48 kHz, AC-3, 16 bits, 6 channels, ~384.00 kbps avg
48 kHz, AC-3, 16 bits, 6 channels, ~384.00 kbps avg
MediaInfo: ▼General
Unique ID : 253894488623734144647991685579017323901 (0xBF024CC20582204EBD57F7F327F0857D)
Complete name : C:UsersAraDownloadsРЭД (Red) (2010).mkv
Format : Matroska
Format version : Version 2
File size : 2.19 GiB
Duration : 1h 51mn
Overall bit rate : 2 815 Kbps
Movie name : РЭД / Red (2010) Release by Vaippp
Encoded date : UTC 2013-05-08 19:32:08
Writing application : mkvmerge v4.4.0 (Die Wiederkehr) сборка от Oct 31 2012 21:52:48
Writing library : libebml v1.0.0 + libmatroska v1.0.0

Video
ID : 1
Format : AVC
Format/Info : Advanced Video Codec
Format profile : [email protected]
Format settings, CABAC : Yes
Format settings, ReFrames : 8 frames
Codec ID : V_MPEG4/ISO/AVC
Duration : 1h 51mn
Bit rate : 2 044 Kbps
Width : 1 152 pixels
Height : 480 pixels
Display aspect ratio : 2.40:1
Frame rate mode : Constant
Frame rate : 23.976 fps
Color space : YUV
Chroma subsampling : 4:2:0
Bit depth : 8 bits
Scan type : Progressive
Bits/(Pixel*Frame) : 0.154
Stream size : 1.55 GiB (71%)
Title : Release by Vaippp
Writing library : x264 core 98 r1649 20cbe10
Encoding settings : cabac=1 / ref=8 / deblock=1:-2:-1 / analyse=0x3:0x113 / me=umh / subme=9 / psy=1 / psy_rd=1.00:0.10 / mixed_ref=1 / me_range=24 / chroma_me=1 / trellis=1 / 8x8dct=1 / cqm=0 / deadzone=21,11 / fast_pskip=0 / chroma_qp_offset=-3 / threads=4 / sliced_threads=0 / nr=0 / decimate=1 / interlaced=0 / constrained_intra=0 / bframes=7 / b_pyramid=2 / b_adapt=2 / b_bias=0 / direct=3 / weightb=1 / weightp=2 / keyint=250 / keyint_min=25 / scenecut=40 / intra_refresh=0 / rc_lookahead=60 / rc=2pass / mbtree=1 / bitrate=2044 / ratetol=1.0 / qcomp=0.70 / qpmin=10 / qpmax=51 / qpstep=4 / cplxblur=20.0 / qblur=0.5 / ip_ratio=1.40 / aq=1:1.00
Language : English
Default : Yes
Forced : No

Audio #1
ID : 2
Format : AC-3
Format/Info : Audio Coding 3
Mode extension : CM (complete main)
Format settings, Endianness : Big
Codec ID : A_AC3
Duration : 1h 51mn
Bit rate mode : Constant
Bit rate : 384 Kbps
Channel(s) : 6 channels
Channel positions : Front: L C R, Side: L R, LFE
Sampling rate : 48.0 KHz
Bit depth : 16 bits
Compression mode : Lossy
Stream size : 305 MiB (14%)
Title : Дубляж R5
Language : Russian
Default : Yes
Forced : Yes

Audio #2
ID : 3
Format : AC-3
Format/Info : Audio Coding 3
Mode extension : CM (complete main)
Format settings, Endianness : Big
Codec ID : A_AC3
Duration : 1h 51mn
Bit rate mode : Constant
Bit rate : 384 Kbps
Channel(s) : 6 channels
Channel positions : Front: L C R, Side: L R, LFE
Sampling rate : 48.0 KHz
B
7c82dfa7ef027fe2c7fb748cd9cde34e33ae96cfРЭД / RED (Роберт Швентке, боевик, комедия, криминал, 2010 г.) [HDRip-AVC, Дублированный + Оригинал, Subs] РЭД / RED (Роберт Швентке, боевик, комедия, криминал, 2010 г.) [HDRip-AVC, Дублированный + Оригинал, Subs] " />

Аплоадер: Админ, дата: 7-08-2013, 16:23, торрент скачан: 359 раз

Понравилась раздача? Посмотрите эти:
  • Два ствола / 2 Guns (Бальтасар Кормакур, боевик, триллер, драма, комедия, к ...
  • Грязь / Filth (Джон С. Бейрд, криминал, драма, комедия, 2013) [BDRip-AVC, ...
  • Погнали! / Getaway (Кортни Соломон, боевик, криминал, 2013) [BDRip 720p, Пр ...
  • Пастырь / Priest (Скотт Чарльз Стюарт, ужасы, фантастика, боевик, триллер, ...
  • Хроника / Chronicle (Джошуа Транк, фантастика, боевик, триллер, драма, 2012 ...
  • РЭД / Red (Роберт Швентке, Боевик, триллер, комедия, криминал, 2010) [BDRip ...
  • Смерть на похоронах / Death at a Funeral (Нил ЛаБут, комедия, 2010) [BDRip ...
  • Водитель / The Driver (Уолтер Хилл, Боевик, триллер, драма, криминал, 1978) ...
  • Напряги Извилины / Get Smart (Питер Сигал, Комедия, боевик, приключения ...
  • Экипаж / Flight (Роберт Земекис, Драма, 2012) [BDRip-AVC, Профессиональный ...
  • РЭД / RED (Роберт Швентке, Боевик, комедия, криминал, 2010 г.) [HDRip-AVC, ...
  • Персонаж / Stranger Than Fiction (Марк Форстер, Комедия, драма, фантастика, ...
  • Черное золото / Black Gold (Жан-Жак Анно, Драма, 2011) [BDRip-AVC, Професси ...
  • Центурион / Centurion (Нил Маршалл / Neil Marshall, Боевик, триллер, драма, ...
  • [ENG] Крутые кексы / High School (Джон Сталберг, комедия, 2010) [BDRip 720p ...
  • Странная жизнь Тимоти Грина / The Odd Life of Timothy Green (Питер Хеджес, ...
  • РЭД / Red (Роберт Швентке, боевик, комедия, криминал, 2010) [BDRip 720p, Ду ...
  • РЭД / Red (Роберт Швентке, боевик, комедия, криминал, 2010) [BDRip 1080p, Д ...
  • Мачо и ботан / 21 Jump Street (Фил Лорд, Крис Миллер, боевик, комедия, 2012 ...
  • «Весёлые» каникулы / Get the Gringo (Адриан Грюнберг, Боевик, комедия, 2012 ...
  • Ворон / The Raven (Джеймс МакТиг, Триллер, детектив, 2012) [BDRip 720p, Дуб ...
  • Футбольный клуб / Чемпионат Европы 2012 / НТВ+ [Футбол, 08.06.2012, HDTVRip ...
  • Mylene Farmer / Du Temps [2011, Pop, HDTVRip]
  • Mylene Farmer / Bleu Noir [2011, Pop, HDTVRip]
  • PBS: Природа – Гималаи / PBS: Nature – The Himalayas (Крис Морган, Докумен ...
  • Информация
    Посетители, находящиеся в группе Гости, не могут оставлять комментарии к данной публикации.