вход на сайт

Имя пользователя :
Пароль :

Восстановление пароля Регистрация
Цена страха / The Sum of All Fears (Фил Олден Робинсон, боевик, триллер, драма, 2002) [HDRip, Профессиональный (многоголосый, закадровый)]
Рейтинг:
(голосов: 1)



[img]{THEME}/images/logopost.png[/img]



• Цена страха / The Sum of All Fears •

♥ Год выпуска: 2002
♥ Страна: США, Германия
♥ Производство: Mace Neufeld Productions, MFP Munich Film Partners GmbH & Company I. Produktions KG, Paramount Pictures, S.O.A.F. Productions
♥ Жанр: боевик, триллер, драма

♥ Режиссёр: Фил Олден Робинсон
♥ В ролях: Бен Аффлек, Морган Фриман, Джеймс Кромуэлл, Лив Шрайбер, Алан Бэйтс, Филип Бэйкер Холл, Брюс МакГилл, Джейми Хэрролд, Бриджет Мойнэхэн, Сайэрэн Хайндз

♥ Перевод: Профессиональный (многоголосый, закадровый)
♥ Субтитры: Отсутствуют

♥ Описание: Когда президент России внезапно умирает, его пост занимает человек, о котором общественности известно достаточно мало. Именно этот факт увеличивает напряженную обстановку в стране. Глава ЦРУ Билл Кэбот принимает на работу молодого аналитика Джека Райана, специалиста по России, чтобы получать достоверную информацию из первых рук. Вскоре случается ужасное: столица Чечни обзаводится ядерной бомбой. Американцы быстро начинают обвинять во всем русских. Также они недоверчиво относятся к сведениям Райана, который с риском для жизни проводит свои расследования. А он прав. Террористы провоцируют начало войны между двумя нациями, находясь позади сцены. Когда они успешно взрывают бомбу рядом с Балтимором во время Золотого Кубка, мир уже находится на грани войны. Но… если Райан вовремя достанет необходимые доказательства, то этот поток бедствий прекратится.
♥ Качество: HDRip | [Исх. BDRip 1080p]
♥ Продолжительность: 02:03:41

♥ Формат: AVI
♥ Видео кодек: XviD
♥ Аудио кодек: MP3
♥ Видео: 688x288 (2.40:1), 23.976 fps, XviD build 50 ~ 711 kbps avg, 0.150 bit/pixel
♥ Аудио: 48 kHz, MPEG Layer 3, 2 ch, ~128.00 kbps avg

♥ Дата премьеры (мир): 29 мая 2002
♥ Дата премьеры (РФ): 26 сентября 2002, «Ист-Вест»
MediaInfo: ▼Text
General
Complete name : D:Цена страха 700.avi
Format : AVI
Format/Info : Audio Video Interleave
File size : 751 MiB
Duration : 2h 3mn
Overall bit rate : 849 Kbps
Writing application : VirtualDubMod 1.5.10.2 (build 2540/release)
Writing library : VirtualDubMod build 2540/release
Video #0
ID : 0
Format : MPEG-4 Visual
Format profile : Advanced [email protected]
Format settings, BVOP : 1
Format settings, QPel : No
Format settings, GMC : No warppoints
Format settings, Matrix : Custom
Codec ID : XVID
Codec ID/Hint : XviD
Duration : 2h 3mn
Bit rate : 711 Kbps
Width : 688 pixels
Height : 288 pixels
Display aspect ratio : 2.40:1
Frame rate : 23.976 fps
Color space : YUV
Chroma subsampling : 4:2:0
Bit depth : 8 bits
Scan type : Progressive
Compression mode : Lossy
Bits/(Pixel*Frame) : 0.150
Stream size : 629 MiB (84%)
Writing library : XviD 1.2.1 (UTC 2008-12-04)
Audio #1
ID : 1
Format : MPEG Audio
Format version : Version 1
Format profile : Layer 3
Codec ID : 55
Codec ID/Hint : MP3
Duration : 2h 3mn
Bit rate mode : Constant
Bit rate : 128 Kbps
Channel(s) : 2 channels
Sampling rate : 48.0 KHz
Compression mode : Lossy
Stream size : 113 MiB (15%)
Alignment : Aligne
67942baf60669795ad46250878f781b6af7a8a87Цена страха / The Sum of All Fears (Фил Олден Робинсон, боевик, триллер, драма, 2002) [HDRip, Профессиональный (многоголосый, закадровый)] Цена страха / The Sum of All Fears (Фил Олден Робинсон, боевик, триллер, драма, 2002) [HDRip, Профессиональный (многоголосый, закадровый)] " />

Аплоадер: Админ, дата: 13-07-2013, 22:34, торрент скачан: 359 раз

Понравилась раздача? Посмотрите эти:
  • Погнали! / Getaway (Кортни Соломон, Боевик, Криминал, 2013) [HDRip, Професс ...
  • Погнали! / Getaway (Кортни Соломон, Боевик,Криминал, 2013) [HDRip, Професси ...
  • Посылка / The Package (Джесси Джонсон, боевик, 2013) [HDRip, Профессиональн ...
  • Посылка / The Package (Джесси Джонсон, боевик, 2013) [HDRip, Профессиональн ...
  • Ледяной / The Iceman (Ариэль Вромен, триллер, драма, криминал, биография, 2 ...
  • 42 / 42 (Брайан Хелгеленд, драма, биография, спорт, 2013) [BDRip, Профессио ...
  • Ночь тамплиера / Night of the Templar (Пол Сэмпсон, Ужасы, фантастика, боев ...
  • Цена страха / The Sum of All Fears (Фил Олден Робинсон, боевик, триллер, др ...
  • Поле чудес / Поле мечты / Field of Dreams (Фил Олден Робинсон, фэнтези, дра ...
  • Цена страха / The Sum of All Fears (Фил Олден Робинсон, Боевик, Драма, Трил ...
  • Цель Номер Один / Zero Dark Thirty (Кэтрин Бигелоу, боевик, триллер, драма, ...
  • Тихушники / Sneakers (Фил Олден Робинсон, Триллер, Драма, Комедия, Криминал ...
  • Неуловимые / Red Dawn (Дэн Брэдли, боевик, 2012) [HDRip, Профессиональный ( ...
  • Лучший стрелок / Top Gun (Тони Скотт, боевик, драма, мелодрама, 1986) [BDRi ...
  • Tank Feat. T.I. & Kris Stephens / Compliments [2012, RnB,Hip-Hop, HDRip]
  • Индиана Джонс: В поисках утраченного ковчега / Indiana Jones and the Raider ...
  • Индиана Джонс и Храм Судьбы / Indiana Jones and the Temple of Doom (Стивен ...
  • Цена страха / The Sum of All Fears (Фил Олден Робинсон, Боевик, триллер, др ...
  • Замёрзший мир / 2012: Ice Age (Трэвис Форт, фантастика, боевик, 2011) [HDRi ...
  • Девушки в опасности / Damsels in Distress (Уит Стиллман, драма, мелодрама, ...
  • Глушь / Resurrection County (Matt Zettell, ужасы, триллер, 2008) [DVDRip, П ...
  • Глаз шторма / The Eye of the Storm (Фред Скеписи, Драма, 2011) [HDRip, Проф ...
  • Искажение / Skew (Сейв Челенз, ужасы, триллер, 2011) [HDRip, Профессиональн ...
  • Татуировщик / The Tattooist (Питер Бюргер, ужасы, триллер, 2007) [HDRip, Пр ...
  • Ничего, кроме правды / Nothing But the Truth (Род Лури, триллер, драма, 200 ...
  • Информация
    Посетители, находящиеся в группе Гости, не могут оставлять комментарии к данной публикации.