вход на сайт

Имя пользователя :
Пароль :

Восстановление пароля Регистрация
12 раундов: Перезагрузка / 12 Rounds: Reloaded (Роэль Рейн, Боевик, 2013) [HDRip, Профессиональный (многоголосый закадровый)]
Рейтинг:
(голосов: 1)



[img]{THEME}/images/logopost.png[/img]



12 раундов: Перезагрузка / 12 Rounds: Reloaded
------



Год выпуска: 2013
Страна: США
Производство: WWE Studios
Жанр: боевик

Режиссер: Роэль Рейн
В ролях: Брайан Маркинсон, Рэнди Ортон, Синди Басби, Шон Роджерсон, Патрик Гилмор, Джесси Хатч, Колин Лоуренс, Челси Рейст, Фрейзер Айтчесон, Том Стивенс

Перевод: Профессиональный (многоголосый закадровый)
Субтитры: Отсутствуют

Описание: Продолжение первого фильма, в котором полицейский Дэнни Фишер сошелся в схватке с очень опасным преступником Майлсом Джексоном. Тогда Майлс решил отомстить копу Фишеру и забрать жизнь его девушки. Но Дэнни оказался молодцом и обошёл все ловушки, расставленные Джексоном и вернул свою любимую. Правда преступник остался жив и не забыл про месть…



Премьера (мир): 4 июня 2013, ...

МедиаИнфо ▼Text

D:12.raundov.Perezagruzka.2013.P.HDRip.700MB.avi
General
Complete name : D:12.raundov.Perezagruzka.2013.P.HDRip.700MB.avi
Format : AVI
Format/Info : Audio Video Interleave
File size : 697 MiB
Duration : 1h 34mn
Overall bit rate : 1 035 Kbps
Writing application : VirtualDubMod 1.5.10.3 | www.virtualdub-fr.org || (build 2550/release)
Writing library : VirtualDubMod build 2550/release
Video #0
ID : 0
Format : MPEG-4 Visual
Format profile : Advanced [email protected]
Format settings, BVOP : Yes
Format settings, QPel : No
Format settings, GMC : No warppoints
Format settings, Matrix : Default (H.263)
Codec ID : XVID
Codec ID/Hint : XviD
Duration : 1h 34mn
Bit rate : 898 Kbps
Width : 640 pixels
Height : 352 pixels
Display aspect ratio : 16:9
Frame rate : 23.976 fps
Color space : YUV
Chroma subsampling : 4:2:0
Bit depth : 8 bits
Scan type : Progressive
Compression mode : Lossy
Bits/(Pixel*Frame) : 0.166
Stream size : 605 MiB (87%)
Writing library : XviD 1.2.1 (UTC 2008-12-04)
Audio #1
ID : 1
Format : MPEG Audio
Format version : Version 1
Format profile : Layer 3
Codec ID : 55
Codec ID/Hint : MP3
Duration : 1h 34mn
Bit rate mode : Constant
Bit rate : 128 Kbps
Channel(s) : 2 channels
Sampling rate : 48.0 KHz
Compression mode : Lossy
Stream size : 86.2 MiB (12%)
Alignment : Aligned on interleaves
Interleave, duration : 42 ms (1.00 video frame)
Interleave, preload duration : 504 ms
Writing library : LAME3.99r
Encoding settings : -m s -V 4 -q 2 -lowpass 17 -b 128



Качество: HDRip
Продолжительность: 01:34:32

Формат: AVI
Видео кодек: XviD
Аудио кодек: MP3
Видео: 640x352 (1.82:1), 23.976 fps, XviD build 50 ~897 kbps avg, 0.17 bit/pixel
Аудио: 48 kHz, MPEG Layer 3, 2 ch, ~128.00 kbps avg





aec7af5320ae0f60d1ab83a2150327b073931a5812 раундов: Перезагрузка / 12 Rounds: Reloaded (Роэль Рейн, Боевик, 2013) [HDRip, Профессиональный (многоголосый закадровый)] 12 раундов: Перезагрузка / 12 Rounds: Reloaded (Роэль Рейн, Боевик, 2013) [HDRip, Профессиональный (многоголосый закадровый)] " />

Аплоадер: Админ, дата: 12-07-2013, 10:25, торрент скачан: 359 раз

Понравилась раздача? Посмотрите эти:
  • Погнали! / Getaway (Кортни Соломон, Боевик, Криминал, 2013) [HDRip, Професс ...
  • Погнали! / Getaway (Кортни Соломон, Боевик,Криминал, 2013) [HDRip, Професси ...
  • Вирус / Flu (Ким Сон Су, Драма, 2013) [HDTVRip, Любительский (двухголосый з ...
  • Верное дельце / Une pure affaire (Александр Коффре, Боевик, Комедия, Кримин ...
  • Посылка / The Package (Джесси Джонсон, боевик, 2013) [HDRip, Профессиональн ...
  • Посылка / The Package (Джесси Джонсон, боевик, 2013) [HDRip, Профессиональн ...
  • Мэрайа Мунди и шкатулка Мидаса / The Adventurer: The Curse of the Midas Box ...
  • Ледяной / The Iceman (Ариэль Вромен, триллер, драма, криминал, биография, 2 ...
  • 12 раундов: Перезагрузка / 12 Rounds: Reloaded (Роэль Рейн, Боевик, 2013) [ ...
  • 12 раундов: Перезагрузка (Роэль Рейн, боевик, 2013) [BDRip 720p, Профессио ...
  • 12 раундов: Перезагрузка / 12 Rounds: Reloaded (Роэль Рейн, боевик, 2013) [ ...
  • 12 раундов: Перезагрузка / 12 Rounds: Reloaded (Роэль Рейн, боевик, 2013) [ ...
  • Колония / The Colony (Джефф Ренфро, фантастика, боевик, триллер, 2013) [DVD ...
  • Чемпионат Италии 2012-13 / 36-й тур / Рома — Кьево / НТВ+ [07.05.2013, SD, ...
  • Скуби-Ду! Маска Синего Сокола / Scooby-Doo! Mask Of The Blue Falcon (Оливье ...
  • Новые парни турбо / New Kids Turbo (Штефен Хаарс, Боевик, комедия, 2010) [H ...
  • Чемпионат Европы 2012 / Группа D / 1-й тур / Украина - Швеция / Спорт 1 [11 ...
  • Tank Feat. T.I. & Kris Stephens / Compliments [2012, RnB,Hip-Hop, HDRip]
  • Задание / The Task (Алекс Оруэлл, Ужасы, 2010) [HDRip, Профессиональный (мн ...
  • Романтики / The Romantics (Галт Нидерхоффер, Драма, мелодрама, комедия, 201 ...
  • Чемпионат Европы 2012 / Группа B / 1-й тур / Германия - Португалия / Спорт ...
  • Замёрзший мир / 2012: Ice Age (Трэвис Форт, фантастика, боевик, 2011) [HDRi ...
  • Супершторм в Сиэтле / Seattle Superstorm (Джейсон Бурк, фантастика, боевик ...
  • Искажение / Skew (Сейв Челенз, ужасы, триллер, 2011) [HDRip, Профессиональн ...
  • Ничего, кроме правды / Nothing But the Truth (Род Лури, триллер, драма, 200 ...
  • Информация
    Посетители, находящиеся в группе Гости, не могут оставлять комментарии к данной публикации.