вход на сайт

Имя пользователя :
Пароль :

Восстановление пароля Регистрация
Наблюдатель / Le guetteur (Микеле Плачидо, криминал, 2012) [BDRip-AVC, Профессиональный (многоголосый закадровый) [НТВ+], Оригинал (французский), Sub]
Рейтинг:
(голосов: 1)



[img]{THEME}/images/logopost.png[/img]



Наблюдатель / Le guetteur

Год выпуска: 2012
Страна: Франция, Бельгия, Италия
Производство: Babe Film, Ran Entertainment, Climax Films
Жанр: криминал

Режиссёр: Микеле Плачидо
В ролях: Даниель Отой, Матьё Кассовиц, Оливье Гурме, Франсис Рено, Николя Бриансон, Жером Пули, Виоланте Плачидо, Лука Арджентеро, Арли Жовер, Кристиан Эк

Перевод: Профессиональный (многоголосый закадровый) [НТВ+]
Перевод: Оригинал (французский)
Субтитры: Английские, русские (Katya67 и MariaP)

Описание: Комиссар Маттеи уже несколько месяцев преследует банду грабителей банков. Во время очередного ограбления банду вот-вот накроют, но уйти бандитам помогает таинственный снайпер, без промаха ранящий полицейских. После анонимного звонка удаётся арестовать пресловутого снайпера, но тому удаётся бежать, чтобы вычислить предателя. Когда Маттеи узнаёт, что снайпер повинен в смерти его сына во время операции в Афганистане, дело становится личным.



Автор рипа:

Качество: BDRip-AVC | Сэмпл | исх.Le guetteur.BDRemux
Продолжительность: 01:28:35

Формат: MKV
Видео кодек: x.264
Аудио кодек: AC3
Видео: x.264, 1120x476 (2.35), 24.000 fps, 2897 Кbps, 0.226 bit/pixel
Аудио#1: Русский / 48 kHz, AC3 Dolby Digital, 3/2 (L,C,R,l,r) + LFE ch, ~192 kbps
Аудио#2: Французский / 48 kHz, AC3 Dolby Digital, 3/2 (L,C,R,l,r) + LFE ch, 448.00 kbps
Media Info ▼Общее
Уникальный идентификатор : 219673543188819877534335968830014213468 (0xA54395E220EE01B5970CD845F851CD5C)
Полное имя : Nabljudatel.2012.P.BDRip.x264.potroks.mkv
Формат : Matroska
Версия формата : Version 2
Размер файла : 2,19 Гбайт
Продолжительность : 1 ч. 28 м.
Общий поток : 3538 Кбит/сек
Название фильма : -=POTROKS=-
Дата кодирования : UTC 2013-07-11 02:20:59
Программа кодирования : mkvmerge v5.9.0 (On The Loose) built on Dec 15 2012 16:39:58
Библиотека кодирования : libebml v1.3.0 + libmatroska v1.4.0
Attachment : Yes

Видео
Идентификатор : 1
Формат : AVC
Формат/Информация : Advanced Video Codec
Профиль формата : [email protected]
Параметр CABAC формата : Да
Параметр ReFrames формата : 14 кадров
Идентификатор кодека : V_MPEG4/ISO/AVC
Продолжительность : 1 ч. 28 м.
Битрейт : 2897 Кбит/сек
Ширина : 1120 пикселей
Высота : 476 пикселей
Соотношение сторон : 2,35:1
Режим частоты кадров : Постоянный
Частота кадров : 24,000 кадра/сек
Цветовое пространство : YUV
Субдискретизация насыщенности : 4:2:0
Битовая глубина : 8 бит
Тип развёртки : Прогрессивная
Бит/(Пиксели*Кадры) : 0.226
Размер потока : 1,75 Гбайт (80%)
Библиотека кодирования : x264 core 125 r2208 d9d2288
Настройки программы : cabac=1 / ref=14 / deblock=1:-2:-1 / analyse=0x3:0x133 / me=umh / subme=11 / psy=1 / psy_rd=1.06:0.02 / mixed_ref=1 / me_range=32 / chroma_me=1 / trellis=2 / 8x8dct=1 / cqm=0 / deadzone=21,11 / fast_pskip=0 / chroma_qp_offset=-3 / threads=9 / lookahead_threads=1 / sliced_threads=0 / nr=0 / decimate=1 / interlaced=0 / bluray_compat=0 / constrained_intra=0 / bframes=15 / b_pyramid=2 / b_adapt=2 / b_bias=0 / direct=3 / weightb=1 / open_gop=0 / weightp=2 / keyint=240 / keyint_min=23 / scenecut=40 / intra_refresh=0 / rc_lookahead=150 / rc=2pass / mbtree=1 / bitrate=2897 / ratetol=1.0 / qcomp=0.70 / qpmin=0 / qpmax=69 / qpstep=4 / cplxblur=20.0 / qblur=0.5 / vbv_maxrate=20000 / vbv_bufsize=25000 / nal_hrd=none / ip_ratio=1.35 / aq=1:0.70
Язык : English
Default : Да
Forced : Нет

Аудио #1
Идентификатор : 2
Формат : AC-3
Формат/Информация : Audio Coding 3
Расширение режима : CM (complete main)
Параметр Endianness формата : Big
Идентификатор кодека : A_AC3
Продолжительность : 1 ч. 28 м.
Вид битрейта : Постоянный
Битрейт : 192 Кбит/сек
Каналы : 2 канала
Расположение каналов : Front: L R
Частота : 48,0 КГц
Битовая глубина : 16 бит
Метод сжатия : С потерями
Размер потока : 122 Мбайт (5%)
Заголовок : DVO | DD 2.0 @ 192 kbps - НТВ+
Язык : Russian
Default : Да
Forced : Да

А
63876935eb0c450185cd3ac77e42992c8789ece4Наблюдатель / Le guetteur (Микеле Плачидо, криминал, 2012) [BDRip-AVC, Профессиональный (многоголосый закадровый) [НТВ+], Оригинал (французский), Sub] Наблюдатель / Le guetteur (Микеле Плачидо, криминал, 2012) [BDRip-AVC, Профессиональный (многоголосый закадровый) [НТВ+], Оригинал (французский), Sub] " />

Аплоадер: Админ, дата: 11-07-2013, 11:10, торрент скачан: 359 раз

Понравилась раздача? Посмотрите эти:
  • Одноклассники 2 / Grown Ups 2 (Деннис Дуган, Комедия, 2013) [BDRip-AVC, Про ...
  • Погнали! / Getaway (Кортни Соломон, боевик, криминал, 2013) [BDRip 1080p, П ...
  • Погнали! / Getaway (Кортни Соломон, боевик, криминал, 2013) [BDRip-AVC, Про ...
  • 11.6 / 11.6 (Филипп Годо, Драма, триллер, криминал, 2013) [BDRip-AVC, Профе ...
  • Невероятный Бёрт Уандерстоун / The Incredible Burt Wonderstone (Дон Скардин ...
  • Наблюдатель / Le guetteur (Микеле Плачидо, криминал, 2012) [HDRip, Професси ...
  • Невероятный Бёрт Уандерстоун / The Incredible Burt Wonderstone (Дон Скардин ...
  • Никто не выжил / No One Lives (Рюхэй Китамура, Триллер, ужасы, 2012) [BDRip ...
  • Шутки в сторону / De lautre cote du periph (Давид Шарон, комедия, 2012) [BD ...
  • Повар для Президента / Les saveurs du Palais (Кристиан Венсан, комедия, био ...
  • Летучий отряд Скотланд-Ярда / The Sweeney (Ник Лав, Боевик, драма, криминал ...
  • Мёбиус / Mobius (Эрик Рошан, триллер, драма, 2013) [BDRip-AVC, Профессионал ...
  • Невероятный Бёрт Уандерстоун / The Incredible Burt Wonderstone (Дон Скардин ...
  • Залив / The Bay (Барри Левинсон, Ужасы, фантастика, триллер, 2012) [BDRip-A ...
  • Порочные игры / Stoker (Пак Чхан Ук, Триллер, драма, детектив, 2013) [BDRip ...
  • Порочные игры / Stoker (Пак Чхан Ук, Триллер, драма, детектив, 2013) [BDRip ...
  • Фантомы / Shutter (Масаюки Очиай, ужасы, триллер, детектив, 2008) [BDRip-AV ...
  • Поймай толстуху, если сможешь [Театральная версия] / Identity Thief [Theatr ...
  • Наблюдатель / Le guetteur (Микеле Плачидо, Боевик, криминал, 2012) [BDRip-A ...
  • Рикошет / Ricochet (Ник Гомез, драма, детектив, 2011) [BDRip-AVC, Профессио ...
  • Мама / Mama (Андрес Мускетти, ужасы, фэнтези, триллер, 2013) [BDRip-AVC, Пр ...
  • Огонь Кристиана Лубутена 3D / FEU: Crazy Horse Paris (Бруно Халлин, Докумен ...
  • Пакт / The Pact (Николас МакКарти, ужасы, триллер, детектив, 2012) [BDRip-A ...
  • Магазинчик самоубийств 3D / Le magasin des suicides (Патрис Леконт, мультфи ...
  • Суррогат / The Sessions (Бен Луин, Драма, 2012) [BDRip-AVC, Профессиональны ...
  • Информация
    Посетители, находящиеся в группе Гости, не могут оставлять комментарии к данной публикации.