вход на сайт

Имя пользователя :
Пароль :

Восстановление пароля Регистрация
Узник / One in the Chamber (Уильям Кауфман, боевик, триллер, криминал, 2012) [BDRip-AVC, Профессиональный многоголосый, Авторский одноголосый (Дольский), Оригинал(Английский),Sub]
Рейтинг:
(голосов: 1)



[img]{THEME}/images/logopost.png[/img]



Узник / One in the Chamber
«Когда воюют убийцы, каждая пуля на счету»

Год выпуска: 2012
Страна: США
Производство: Mediapro Studios, Motion Picture Corporation of America (MPCA)
Жанр: боевик, триллер, криминал

Режиссёр: Уильям Кауфман
В ролях:Кьюба Гудинг мл., Дольф Лундгрен, Клаудия Бассолс, Эндрю Бикнелл, Билли Мюррэй, Лео Грегори, Луис Мэндилор, Аарон МакФерсон, Элин Пэнк, Джастин Бёрш, Патриция Поинару, Джордж Ремис, Джимми Таунсенд, Богдан Уритеску, Богдан Фаркас, Флорин Роата, Каталин Баблюк

Перевод: Профессиональный многоголосый, Авторский одноголосый (Дольский), Оригинал(Английский)
Субтитры: русские,английские

Описание: Профессиональный наёмный убийца во время смертельной схватки с мафией оказывается целью преследования неизвестного опасного врага




Дата премьеры (мир):18 мая 2012

Качество: BDRip-AVC / Сэмпл
Продолжительность: 01:20:13

Формат: MKV
Видео кодек: H.264
Аудио кодек: AC3
Cвойства видео: 1024x576 (16:9), 23.976 fps,H.264 build 64 ~ 2399 kbps avg, 0.170 bit/pixel
Свойства аудио#1: 48 kHz, AC3 Dolby Digital, 6/0 (L,R) ch, 384.00 kbps avg / Профессиональный многоголосый
Свойства аудио#2: 48 kHz, AC3 Dolby Digital, 2/0 (L,R) ch, 192.00 kbps avg / Авторский одноголосый (Дольский)
Свойства аудио#2: 48 kHz, AC3 Dolby Digital, 6/0 (L,R) ch, 448.00 kbps avg / Оригинал(Английский)
"MediaInfo" ▼Общее
Уникальный идентификатор : 218604208989491269988299506382220550257 (0xA475A3A3046577BAAC10CA58C747E071)
Полное имя : E:Uznik.2012.x264.BDRip.(AVC).ExKinoRay.mkv
Формат : Matroska
Размер файла : 2,18 Гбайт
Продолжительность : 1 ч. 31 м.
Общий поток : 3423 Кбит/сек
Название фильма : Uznik.2012.x264.BDRip.(AVC).ExKinoRay
Дата кодирования : UTC 2013-07-09 15:21:30
Программа кодирования : mkvmerge v4.0.0 (The Stars were mine) сборка от Jun 6 2010 16:18:42
Библиотека кодирования : libebml v1.0.0 + libmatroska v1.0.0

Видео
Идентификатор : 1
Формат : AVC
Формат/Информация : Advanced Video Codec
Профиль формата : [email protected]
Параметр CABAC формата : Да
Параметр ReFrames формата : 8 кадров
Идентификатор кодека : V_MPEG4/ISO/AVC
Продолжительность : 1 ч. 31 м.
Битрейт : 2399 Кбит/сек
Ширина : 1024 пикс.
Высота : 576 пикс.
Соотношение сторон : 16:9
Частота кадров : 23,976 кадр/сек
Цветовое пространство : YUV
Подвыборка цветности : 4:2:0
Битовая глубина : 8 бит
Тип развёртки : Прогрессивная
Бит/(Пиксели*Кадры) : 0.170
Размер потока : 1,48 Гбайт (68%)
Заголовок : Rip by Enigma-Vladislav71
Библиотека кодирования : x264 core 129 r2245 bc13772
Настройки программы : cabac=1 / ref=8 / deblock=1:-2:-2 / analyse=0x3:0x133 / me=umh / subme=11 / psy=1 / psy_rd=1.00:0.00 / mixed_ref=1 / me_range=48 / chroma_me=1 / trellis=2 / 8x8dct=1 / cqm=0 / deadzone=21,11 / fast_pskip=0 / chroma_qp_offset=-2 / threads=3 / lookahead_threads=1 / sliced_threads=0 / nr=0 / decimate=0 / interlaced=0 / bluray_compat=0 / constrained_intra=0 / bframes=8 / b_pyramid=2 / b_adapt=2 / b_bias=0 / direct=3 / weightb=1 / open_gop=0 / weightp=2 / keyint=240 / keyint_min=23 / scenecut=40 / intra_refresh=0 / rc_lookahead=40 / rc=2pass / mbtree=1 / bitrate=2399 / ratetol=1.0 / qcomp=0.60 / qpmin=10 / qpmax=51 / qpstep=4 / cplxblur=20.0 / qblur=0.5 / ip_ratio=1.40 / aq=2:1.00
Язык : English

Аудио #1
Идентификатор : 2
Формат : AC-3
Формат/Информация : Audio Coding 3
Расширение режима : CM (complete main)
Идентификатор кодека : A_AC3
Продолжительность : 1 ч. 31 м.
Вид битрейта : Постоянный
Битрейт : 384 Кбит/сек
Каналы : 6 каналов
Расположение каналов : Front: L C R, Side: L R, LFE
Частота : 48,0 КГц
Битовая глубина : 16 бит
Метод сжатия : С потерями
Размер потока : 250 Мбайт (11%)
Заголовок : многоголосый
Язык : Russian

Аудио #2
Идентификатор : 3
Формат : AC-3
Формат/Информация : Audio Coding 3
Расширение режима : CM (complete main)
Идентификатор кодека
3a7c1cc540aa2c0c1bf4b4de58109cfa320b8ad5Узник / One in the Chamber (Уильям Кауфман, боевик, триллер, криминал, 2012) [BDRip-AVC, Профессиональный многоголосый, Авторский одноголосый (Дольский), Оригинал(Английский),Sub] Узник / One in the Chamber (Уильям Кауфман, боевик, триллер, криминал, 2012) [BDRip-AVC, Профессиональный многоголосый, Авторский одноголосый (Дольский), Оригинал(Английский),Sub] " />

Аплоадер: Админ, дата: 10-07-2013, 23:23, торрент скачан: 359 раз

Понравилась раздача? Посмотрите эти:
  • Тело / El cuerpo (Ориол Паоло, триллер, 2012) [BDRip-AVC, Авторский (одного ...
  • Погнали! / Getaway (Кортни Соломон, боевик, криминал, 2013) [BDRip-AVC, Про ...
  • Мальчишник: Часть III / The Hangover Part III (Тодд Филлипс, комедия, 2013) ...
  • Летучий отряд Скотланд-Ярда / The Sweeney (Ник Лав, Боевик, драма, криминал ...
  • Залив / The Bay (Барри Левинсон, Ужасы, фантастика, триллер, 2012) [BDRip-A ...
  • Миллион для чайников / The Brass Teapot (Рамаа Мосли, драма, биография, ист ...
  • Наблюдатель / Le guetteur (Микеле Плачидо, Боевик, криминал, 2012) [BDRip-A ...
  • Перелом / Fracture (Грегори Хоблит, Триллер, драма, криминал, детектив, 200 ...
  • Ангелы Чарли / Charlies Angels (МакДжи, Боевик, триллер, комедия, криминал, ...
  • Призраки / Ghosted (Крэйг Вивейрос, Триллер, драма, 2011) [BDRip-AVC, Профе ...
  • Бульвар спасения / Salvation Boulevard (Джордж Рэтлифф, боевик, триллер, др ...
  • Моя ужасная няня 2 / Nanny McPhee and the Big Bang (Сузанна Уайт, Фэнтези, ...
  • Суррогат / The Sessions (Бен Луин, Драма, 2012) [BDRip-AVC, Профессиональны ...
  • 11:14 (Одиннадцать четырнадцать) / 11:14 (Elevenfourteen) (Грег Маркс, трил ...
  • Узник / One in the Chamber (Уильям Кауфман, боевик, триллер, криминал, 2012 ...
  • Наёмные убийцы / Contract Killers (Джастин Б. Родс, Боевик, 2009) [HDRip-AV ...
  • Павшая империя / Hirokin (Алехо Мо-Сан, фантастика, боевик, драма, приключе ...
  • Петля времени / Looper (Райан Джонсон, Фантастика, боевик, триллер, кримина ...
  • Узник / One in the Chamber (Уильям Кауфман, боевик, триллер, криминал, 2012 ...
  • Узник / One in the Chamber (Уильям Кауфман, боевик, триллер, криминал, 2012 ...
  • Информация
    Посетители, находящиеся в группе Гости, не могут оставлять комментарии к данной публикации.