вход на сайт

Имя пользователя :
Пароль :

Восстановление пароля Регистрация
Неудержимый / Bullet to the Head (Уолтер Хилл, Боевик, триллер, криминал, 2012) [BDRip, Дубляж, Авторский (одноголосый закадровый) - А. Ю. Гаврилов, Оригинал (английский), Sub]
Рейтинг:
(голосов: 1)



[img]{THEME}/images/logopost.png[/img]



Неудержимый / Bullet to the Head
Год выпуска: 2012
Страна: США
Производство: AfterDark Films, Automatik Entertainment, Dark Castle Entertainment, EMJAG Productions, Headshot Films, IM Global
Жанр: Боевик, триллер, криминал

Режиссёр: Уолтер Хилл
В ролях: Сильвестр Сталлоне, Санг Кенг, Сара Шахи, Адевале Акинойе-Агбаже, Джейсон Момоа, Кристиан Слэйтер, Джон Седа, Холт МакКэллани, Брайан Ван Холт, Вероника Розати

Перевод: Дубляж, Авторский (одноголосый закадровый) - А. Ю. Гаврилов,Оригинал (английский)
Субтитры: русские (full Dub+full Goblin) + английские (full+SDH+SDH-Colored) внешние

Описание: Киллер из Нового Орлеана объединяется с молодым полицейским из Нью-Йорка, расследуя дело, которое выводит их с мрачных задворок Нового Орлеана в светлые коридоры правительственных зданий в Вашингтоне. Необычный дуэт формируется в результате двух жестоких убийств. Герои убирают всех, кто стоит у них на пути, и готовы пожертвовать всем, чтобы отомстить.



Качество: BDRip | Сэмпл |
Продолжительность: 01:31:33 час.

Формат: AVI
Видео кодек: XviD
Аудио кодек: AC3
Видео: 720x384 (2.37:1), 23.976 fps, XviD build 65 ~2046 kbps avg, 0.316 bit/pixel
Аудио#1: 48 kHz, AC3 Dolby Digital, 3/2 (L,C,R,l,r) + LFE ch, ~448 kbps avg - (Дубляж)
Аудио#2: 48 kHz, AC3 Dolby Digital, 3/2 (L,C,R,l,r) + LFE ch, ~448 kbps avg - (Авторский)
Аудио#3: 48 kHz, AC3 Dolby Digital, 3/2 (L,C,R,l,r) + LFE ch, ~448 kbps avg - (Оригинал)

Дата премьеры (мир): 14 ноября 2012
Дата премьеры (РФ): 7 февраля 2013, «Централ Партнершип»

MediaInfo ▼
General
Complete name : DBullet.to.the.Head.2012.TRIPLE.BDRip.2,18Gb.XviD.AC3Bullet.to.the.Head.2012.TRIPLE.BDRip.2,18Gb.XviD.AC3.avi
Format : AVI
Format/Info : Audio Video Interleave
Format profile : OpenDML
File size : 2.18 GiB
Duration : 1h 31mn
Overall bit rate : 3 414 Kbps
Writing application : VirtualDubModRus 1.5.10.2 (build 2542/release)
Writing library : VirtualDubMod build 2542/release

Video
ID : 0
Format : MPEG-4 Visual
Format profile : Advanced [email protected]
Format settings, BVOP : 1
Format settings, QPel : No
Format settings, GMC : No warppoints
Format settings, Matrix : Custom
Codec ID : XVID
Codec ID/Hint : XviD
Duration : 1h 31mn
Bit rate : 2 046 Kbps
Width : 704 pixels
Height : 384 pixels
Display aspect ratio : 1.85:1
Frame rate : 23.976 fps
Color space : YUV
Chroma subsampling : 4:2:0
Bit depth : 8 bits
Scan type : Progressive
Compression mode : Lossy
Bits/(Pixel*Frame) : 0.316
Stream size : 1.31 GiB (60%)
Writing library : XviD 65

Audio #1
ID : 1
Format : AC-3
Format/Info : Audio Coding 3
Mode extension : CM (complete main)
Format settings, Endianness : Big
Codec ID : 2000
Duration : 1h 31mn
Bit rate mode : Constant
Bit rate : 448 Kbps
Channel(s) : 6 channels
Channel positions : Front: L C R, Side: L R, LFE
Sampling rate : 48.0 KHz
Bit depth : 16 bits
Compression mode : Lossy
Stream size : 293 MiB (13%)
Alignment : Split accross interleaves
Interleave, duration : 42 ms (1.00 video frame)
Interleave, preload duration : 500 ms
Title : DUB

Audio #2
ID : 2
Format : AC-3
Format/Info : Audio Coding 3
Mode extension : CM (complete main)
Format settings, Endianness : Big
Codec ID : 2000
Duration : 1h 31mn
Bit rate mode : Constant
Bit rate : 448 Kbps
Channel(s) : 6 channels
Channel positions : Front: L C R, Side: L R, LFE
Sampling rate : 48.0 KHz
Bit depth : 16 bits
Compression mode : Lossy
Stream size : 293 MiB (13%)
Alignment : Split accross interleaves
Interleave, duration : 42 ms (1.00 video frame)
Interleave, preload duration : 500 ms
Title : AVO

Audio #3
ID : 3
Format : AC-3
Format/Info : Audio Coding 3
Mode extension : CM (complete main)
Format settings, Endianness : Big
Codec ID : 2000
Duration : 1h 31mn
Bit rate mode : Constant
Bit rate : 448 Kbps
Channel(s) : 6 channels
Channel positions : Front: L C R, Side: L R, LFE
Samplin
0cba9b34a91560bfd4a2b42a288352d4fb277aabНеудержимый / Bullet to the Head (Уолтер Хилл, Боевик, триллер, криминал, 2012) [BDRip, Дубляж, Авторский (одноголосый закадровый) - А. Ю. Гаврилов, Оригинал (английский), Sub] Неудержимый / Bullet to the Head (Уолтер Хилл, Боевик, триллер, криминал, 2012) [BDRip, Дубляж, Авторский (одноголосый закадровый) - А. Ю. Гаврилов, Оригинал (английский), Sub] " />

Аплоадер: Админ, дата: 5-07-2013, 23:42, торрент скачан: 359 раз

Понравилась раздача? Посмотрите эти:
  • Великий Гэтсби / The Great Gatsby (Баз Лурман, Драма, мелодрама, 2013) [BDR ...
  • Неудержимый / Bullet to the Head (Уолтер Хилл, Боевик, триллер, криминал , ...
  • Возвращение героя / The Last Stand (Ким Чжи-ун, Боевик, триллер, криминал, ...
  • Безумный Макс 3: Под куполом грома / Mad Max Beyond Thunderdome (Джордж Мил ...
  • Неудержимый / Bullet to the Head ( Уолтер Хилл, боевик, триллер, криминал, ...
  • Неудержимый / Bullet to the Head (Уолтер Хилл, Боевик, триллер, криминал, 2 ...
  • Неудержимый / Bullet to the Head (Уолтер Хилл, Боевик, триллер, криминал, 2 ...
  • Неудержимый / Bullet to the Head (Уолтер Хилл, Боевик, триллер, криминал, 2 ...
  • Мужество / Wymyk (Грег Зглински, драма, 2011) [DVDRip, Любительский (одного ...
  • Поймай толстуху, если сможешь [Театральная версия] / Identity Thief [Theatr ...
  • Неудержимый / Bullet to the Head (Уолтер Хилл, Боевик, триллер, криминал, 2 ...
  • Неудержимый / Bullet to the Head (Уолтер Хилл, боевик, триллер, криминал, 2 ...
  • 23:59 / 23:59 (Гилберт Чан, Ужасы, 2011) [HDRip, Любительский (одноголосый ...
  • Неудержимый / Bullet to the Head (Уолтер Хилл, Боевик, триллер, криминал, 2 ...
  • Неудержимый / Bullet to the Head (Уолтер Хилл, Боевик, триллер, криминал, 2 ...
  • Неудержимый / Bullet to the Head (Уолтер Хилл, Боевик, триллер, криминал, 2 ...
  • Заложница 2 [Театральная версия] / Taken 2 [Theatrical Cut] (Оливье Мегатон ...
  • Муви 43 / Movie 43 (Стивен Брилл, Питер Фаррелли, Элизабет БэнксСтивен, ком ...
  • Покорители Волн / Chasing Mavericks (Майкл Эптед, Кёртис Хэнсон, Драма, спо ...
  • Монстры на каникулах / Hotel Transylvania (Генндий Тартаковский, мультфильм ...
  • Супер циклон / Super Cyclone (Лиз Адамс / Liz Adams, боевик, 2012) [HDRip, ...
  • Захват / Carjacked (Джон Бонито, триллер, 2011)[BDRip, Профессиональный (мн ...
  • Супершторм в Сиэтле / Seattle Superstorm (Джейсон Бурк, фантастика, боевик ...
  • [Трейлер #1] Неудержимый / Bullet to the Head (Уолтер Хилл, боевик, триллер ...
  • [Трейлер] Неудержимый / Bullet to the Head (Уолтер Хилл, боевик, триллер, к ...
  • Информация
    Посетители, находящиеся в группе Гости, не могут оставлять комментарии к данной публикации.