вход на сайт

Имя пользователя :
Пароль :

Восстановление пароля Регистрация
Снайпер / The Sniper (Луис Ллоса, Боевик,триллер,драма, 1992) [HDTVRip-AVC, Профессиональный (многоголосый закадровый), авторский (одноголосый закадровый),Оригинал]
Рейтинг:
(голосов: 1)



[img]{THEME}/images/logopost.png[/img]



Снайпер / The Sniper

Год выпуска: 1992
Страна: США, Перу
Производство: Sniper Productions, Iguana Producciones, Baltimore Pictures
Жанр: Боевик,триллер,драма

Режиссёр: Луис Ллоса
В ролях:Том Беренджер, Билли Зейн, Дж.Т. Уолш, Аден Янг, Кен Рэдли, Рейнальдо Аренас, Гэри Суонсон, Хэнк Гаррет, Фредерик Миральотта, Ванесса Стил, Карлос Алварез, Тайлер Коппин, Тео Геберт, Эдвард Уайли, Уильям Куртин, Ховард Боссе, Дон Бейти, Радж Сидху, Рой Эдмондс, Джонни Раен, Лури Кортез, Хорхе Бустаманте, Рекс Линн, Энтони Сзето

Перевод: Профессиональный (многоголосый закадровый), авторский (одноголосый закадровый)
Субтитры: Русские, английские

Описание: Два снайпера. Том Бекет и Ричард Миллер, получают смертельно опасное задание: в джунглях Центральной Америки найти базу колумбийских наркодельцов, проникнуть внутрь и ликвидировать главаря. Возможна только одна попытка, один выстрел.Качество: HDTVRip-AVC / Сэмпл
Продолжительность: 01:39:02

Формат: MKV
Видео кодек: H.264
Аудио кодек: AC3
Видео: 1024x576 (16:9), 23,97 fps, H.264, 2526 kbps avg,0.179 bit/pixel
Аудио #1: 48 kHz, AC3, 2 ch, ~192.00 kbps avg/Профессиональный многоголосый
Аудио#2: 48 kHz, AC3, 2 ch, ~192.00 kbps avg/Авторский одноголосый[Андрей Гаврилов]
Аудио#3: 48 kHz, AC3, 2 ch, ~192.00 kbps avg/Авторский одноголосый[Василий Горчаков]
Аудио#4: 48 kHz, AC3, 2 ch, ~192.00 kbps avg/Авторский одноголосый[Леонид Володарский]
Аудио#5: 48 kHz, AC3, 2 ch, ~192.00 kbps avg/Авторский одноголосый[Дмитрий Пучков "Гоблин"]
Аудио#6: 48 kHz, AC3, 2 ch, ~192.00 kbps avg/Английский
"MediaInfo" ▼Полное имя : Sniper.1992.x264.HDTVRip.(AVC).0ptimus.mkv
Формат : Matroska
Версия формата : Version 4 / Version 2
Размер файла : 2,55 Гбайт
Продолжительность : 1 ч. 39 м.
Общий поток : 3679 Кбит/сек
Название фильма : Снайпер | Sniper [1992] -=HDTVRip (AVC) by 0ptimus=-
Дата кодирования : UTC 2013-06-30 07:51:56
Программа кодирования : mkvmerge v6.1.0 (Old Devil) built on Mar 2 2013 14:32:37
Библиотека кодирования : libebml v1.3.0 + libmatroska v1.4.0

Видео
Идентификатор : 1
Формат : AVC
Формат/Информация : Advanced Video Codec
Профиль формата : [email protected]
Параметр CABAC формата : Да
Параметр ReFrames формата : 10 кадров
Идентификатор кодека : V_MPEG4/ISO/AVC
Продолжительность : 1 ч. 39 м.
Битрейт : 2526 Кбит/сек
Ширина : 1024 пикселя
Высота : 576 пикселей
Соотношение сторон : 16:9
Частота кадров : 23,976 кадра/сек
Цветовое пространство : YUV
Субдискретизация насыщенности : 4:2:0
Битовая глубина : 8 бит
Тип развёртки : Прогрессивная
Бит/(Пиксели*Кадры) : 0.179
Размер потока : 1,70 Гбайт (67%)
Заголовок : Rip by 0ptimus
Библиотека кодирования : x264 core 132 r2310 76a5c3a
Настройки программы : cabac=1 / ref=10 / deblock=1:-3:-3 / analyse=0x3:0x113 / me=umh / subme=11 / psy=1 / psy_rd=1.00:0.20 / mixed_ref=1 / me_range=48 / chroma_me=1 / trellis=2 / 8x8dct=1 / cqm=0 / deadzone=21,11 / fast_pskip=0 / chroma_qp_offset=-3 / threads=4 / lookahead_threads=1 / sliced_threads=0 / nr=0 / decimate=0 / interlaced=0 / bluray_compat=0 / constrained_intra=0 / bframes=9 / b_pyramid=2 / b_adapt=2 / b_bias=0 / direct=3 / weightb=1 / open_gop=0 / weightp=2 / keyint=240 / keyint_min=23 / scenecut=40 / intra_refresh=0 / rc_lookahead=40 / rc=2pass / mbtree=0 / bitrate=2526 / ratetol=1.0 / qcomp=0.60 / qpmin=0 / qpmax=69 / qpstep=4 / cplxblur=20.0 / qblur=0.5 / vbv_maxrate=50000 / vbv_bufsize=50000 / nal_hrd=none / ip_ratio=1.40 / pb_ratio=1.30 / aq=1:1.00
Язык : English

Аудио #1
Идентификатор : 2
Формат : AC-3
Формат/Информация : Audio Coding 3
Расширение режима : CM (complete main)
Идентификатор кодека : A_AC3
Продолжительность : 1 ч. 39 м.
Вид битрейта : Постоянный
Битрейт : 192 Кбит/сек
Каналы : 2 канала
Расположение каналов : Front: L R
Частота : 48,0 КГц
Битовая глубина : 16 бит
Метод сжатия : С потерями
Размер потока : 136 Мбайт (5%)
ef45f40c489eab534fc34d74b23e37e4fbc52342Снайпер / The Sniper (Луис Ллоса, Боевик,триллер,драма, 1992) [HDTVRip-AVC, Профессиональный (многоголосый закадровый), авторский (одноголосый закадровый),Оригинал] Снайпер / The Sniper (Луис Ллоса, Боевик,триллер,драма, 1992) [HDTVRip-AVC, Профессиональный (многоголосый закадровый), авторский (одноголосый закадровый),Оригинал] " />

Аплоадер: Админ, дата: 30-06-2013, 17:05, торрент скачан: 359 раз

Понравилась раздача? Посмотрите эти:
  • Тело / El cuerpo (Ориол Паоло, триллер, 2012) [BDRip-AVC, Авторский (одного ...
  • [NG] Комета века / Comet of the century (документальный, 2013) [HDTVRip-AVC ...
  • Пипец / Kick-Ass (Мэттью Вон, боевик, триллер, комедия, криминал, 2010) [BD ...
  • Мальчишник: Часть III / The Hangover Part III (Тодд Филлипс, комедия, 2013) ...
  • Узник / One in the Chamber (Уильям Кауфман, боевик, триллер, криминал, 2012 ...
  • [NG] Война львов / Lion Battle Zone (документальный, 2011) [HDTVRip-AVC, Пр ...
  • Убийцы / Yi ngoi (Поу-Сои Чинг, Триллер, 2009) [BDRip-AVC, Авторский (одног ...
  • 25-й час / 25th Hour (Спайк Ли, Драма, криминал, 2002) [HDTVRip-AVC, Профес ...
  • Азартные игры [Режиссёрская версия] / Reindeer Games [Directors Cut] (Джон ...
  • Двое: Я и моя тень / It Takes Two (Энди Теннант, Мелодрама, комедия, семейн ...
  • Не умирай в одиночку / Never Die Alone (Эрнест Р. Дикерсон, боевик, триллер ...
  • Снайпер | Sniper (Луис Ллоса, Боевик, Триллер, Драма, 1993г) [DVDRip, Профе ...
  • Изо всех сил / Over the Top (Менахем Голан, Боевик, 1987) [BDRip-AVC, Профе ...
  • Снайпер / Sniper (Луис Ллоса, боевик,триллер,драма, 1992) [DVDRip-AVC, Про ...
  • Заложница / Taken (Пьер Морель, Боевик, триллер, криминал, 2008) [BDRip-AVC ...
  • Погоня / The Chase (Адам Рифкин, Боевик, триллер, мелодрама, комедия, крими ...
  • Рука, качающая колыбель / The Hand That Rocks the Cradle (Кёртис Хэнсон, Тр ...
  • Специалист / The Specialist (Луис Ллоса, Боевик, триллер, 1994) [BDRip-AVC, ...
  • Лучшие из лучших 2 / Best of the Best 2 (Роберт Рэдлер, Боевик, триллер, др ...
  • Мифы Амазонки / Mythos Amazonas // Сезон 1, выпуски 1-3 (из 3) (документаль ...
  • Информация
    Посетители, находящиеся в группе Гости, не могут оставлять комментарии к данной публикации.