вход на сайт

Имя пользователя :
Пароль :

Восстановление пароля Регистрация
Летучий отряд Скотланд-Ярда / The Sweeney (Ник Лав, Боевик, драма, криминал, 2012) [BDRip-AVC, Профессиональный (многоголосый закадровый), Оригинал (английский), Sub]
Рейтинг:
(голосов: 1)



[img]{THEME}/images/logopost.png[/img]



Летучий отряд Скотланд-Ярда / The Sweeney
«Чтобы поймать преступника - действуй как преступник»

Год выпуска: 2012
Страна: Великобритания
Производство: Vertigo Films, Embargo Films
Жанр: Боевик, драма, криминал

Режиссёр: Ник Лав
В ролях: Рэй Уинстон, Бен Дрю, Хейли Этвелл, Дамиан Льюис, Аллен Лич, Пол Андерсон, Алан Форд, Стивен Макинтош, Стивен Вэддингтон, Марк

Перевод: Профессиональный (многоголосый закадровый), Оригинал (английский)
Субтитры: Русские, английские (SDH)

Описание: Английская полиция прикладывает максимум усилий для того, чтобы преступники были наказаны. Но детектив Джек Риген борется с преступностью по-своему: грязными, нелегальными, жестокими методами…



Качество: BDRip-AVC | Сэмпл
Продолжительность: 01:52:30 час.

Формат: MKV
Видео кодек: x264
Аудио кодек: AC3
Видео: 1056x440 (2.40:1), 23.976 fps, x264 ~ 2794 kbps avg, 0.251 bit/pixel
Аудио#1: 48 kHz, AC3 Dolby Digital, 3/2 (L,C,R,l,r) + LFE ch, ~448.00 kbps avg - (MVO)
Аудио#2: 48 kHz, AC3 Dolby Digital, 3/2 (L,C,R,l,r) + LFE ch, ~448.00 kbps avg - (Оригинал)

Дата премьеры (мир): 1 августа 2012

MediaInfo ▼

Общее
Уникальный идентификатор : 232378440453637750604345701873158066818 (0xAED275AE3DDD573DB85EAC88F1761282)
Полное имя : Letuchij.Otrjad.Skotland_Jarda.2012.P.BDRip.x264.potroks.mkv
Формат : Matroska
Версия формата : Version 2
Размер файла : 2,91 Гбайт
Продолжительность : 1 ч. 53 м.
Общий поток : 3680 Кбит/сек
Название фильма : -=POTROKS=-
Дата кодирования : UTC 2013-06-23 12:32:41
Программа кодирования : mkvmerge v5.9.0 (On The Loose) built on Dec 15 2012 16:39:58
Библиотека кодирования : libebml v1.3.0 + libmatroska v1.4.0

Видео
Идентификатор : 1
Формат : AVC
Формат/Информация : Advanced Video Codec
Профиль формата : [email protected]
Параметр CABAC формата : Да
Параметр ReFrames формата : 10 кадров
Идентификатор кодека : V_MPEG4/ISO/AVC
Продолжительность : 1 ч. 53 м.
Битрейт : 2794 Кбит/сек
Ширина : 1056 пикселей
Высота : 440 пикселей
Соотношение сторон : 2,40:1
Режим частоты кадров : Постоянный
Частота кадров : 23,976 кадра/сек
Цветовое пространство : YUV
Субдискретизация насыщенности : 4:2:0
Битовая глубина : 8 бит
Тип развёртки : Прогрессивная
Бит/(Пиксели*Кадры) : 0.251
Размер потока : 2,14 Гбайт (74%)
Заголовок : The Sweeney
Библиотека кодирования : x264 core 125 r2208 d9d2288
Настройки программы : cabac=1 / ref=10 / deblock=1:-3:-2 / analyse=0x3:0x133 / me=umh / subme=11 / psy=1 / psy_rd=1.06:0.02 / mixed_ref=1 / me_range=32 / chroma_me=1 / trellis=2 / 8x8dct=1 / cqm=0 / deadzone=21,11 / fast_pskip=0 / chroma_qp_offset=-3 / threads=9 / lookahead_threads=1 / sliced_threads=0 / nr=0 / decimate=1 / interlaced=0 / bluray_compat=0 / constrained_intra=0 / bframes=11 / b_pyramid=2 / b_adapt=2 / b_bias=0 / direct=3 / weightb=1 / open_gop=0 / weightp=2 / keyint=240 / keyint_min=23 / scenecut=40 / intra_refresh=0 / rc_lookahead=150 / rc=2pass / mbtree=1 / bitrate=2794 / ratetol=1.0 / qcomp=0.70 / qpmin=0 / qpmax=69 / qpstep=4 / cplxblur=20.0 / qblur=0.5 / vbv_maxrate=20000 / vbv_bufsize=20000 / nal_hrd=none / ip_ratio=1.35 / aq=1:0.80
Язык : English
Default : Да
Forced : Нет

Аудио #1
Идентификатор : 2
Формат : AC-3
Формат/Информация : Audio Coding 3
Расширение режима : CM (complete main)
Параметр Endianness формата : Big
Идентификатор кодека : A_AC3
Продолжительность : 1 ч. 53 м.
Вид битрейта : Постоянный
Битрейт : 448 Кбит/сек
Каналы : 6 каналов
Расположение каналов : Front: L C R, Side: L R, LFE
Частота : 48,0 КГц
Битовая глубина : 16 бит
Метод сжатия : С потерями
Размер потока : 363 Мбайт (12%)
Заголовок : MVO | DD 5.1 @ 448 kbps - R5
Язык : Russian
Default : Да
Forced : Да

Аудио #2
Идентификатор : 3
Формат : AC-3
Формат/Информация : Audio Coding 3
Расширение режима : CM (complete main)
Параметр Endianness формата : Big
Идентификатор кодека : A_AC3
Продолжительность : 1 ч. 53 м.
Вид битрейта : Постоянный
Битрейт : 448 Кбит/сек
Каналы : 6 каналов
Расположение каналов :
e093eeba2083a23d66e76e3caaed30b04b40d638Летучий отряд Скотланд-Ярда / The Sweeney (Ник Лав, Боевик, драма, криминал, 2012) [BDRip-AVC, Профессиональный (многоголосый закадровый), Оригинал (английский), Sub] Летучий отряд Скотланд-Ярда / The Sweeney (Ник Лав, Боевик, драма, криминал, 2012) [BDRip-AVC, Профессиональный (многоголосый закадровый), Оригинал (английский), Sub] " />

Аплоадер: Админ, дата: 23-06-2013, 20:34, торрент скачан: 359 раз

Понравилась раздача? Посмотрите эти:
  • Одноклассники 2 / Grown Ups 2 (Деннис Дуган, Комедия, 2013) [BDRip-AVC, Про ...
  • Погнали! / Getaway (Кортни Соломон, боевик, криминал, 2013) [BDRip 1080p, П ...
  • Погнали! / Getaway (Кортни Соломон, боевик, криминал, 2013) [BDRip-AVC, Про ...
  • Летучий отряд Скотланд-Ярда / The Sweeney (Ник Лав, боевик, драма, криминал ...
  • Невероятный Бёрт Уандерстоун / The Incredible Burt Wonderstone (Дон Скардин ...
  • Летучий отряд Скотланд-Ярда / The Sweeney (Ник Лав, Боевик, драма, криминал ...
  • Летучий отряд Скотланд-Ярда / The Sweeney (Ник Лав, Боевик, Драма, Криминал ...
  • Никто не выжил / No One Lives (Рюхэй Китамура, Триллер, ужасы, 2012) [BDRip ...
  • Кровь / Blood (Ник Мерфи, Триллер, детектив, 2012) [BDRip-AVC, Профессионал ...
  • Невероятный Бёрт Уандерстоун / The Incredible Burt Wonderstone (Дон Скардин ...
  • Залив / The Bay (Барри Левинсон, Ужасы, фантастика, триллер, 2012) [BDRip-A ...
  • Порочные игры / Stoker (Пак Чхан Ук, Триллер, драма, детектив, 2013) [BDRip ...
  • Порочные игры / Stoker (Пак Чхан Ук, Триллер, драма, детектив, 2013) [BDRip ...
  • Фантомы / Shutter (Масаюки Очиай, ужасы, триллер, детектив, 2008) [BDRip-AV ...
  • Поймай толстуху, если сможешь [Театральная версия] / Identity Thief [Theatr ...
  • Рикошет / Ricochet (Ник Гомез, драма, детектив, 2011) [BDRip-AVC, Профессио ...
  • Мама / Mama (Андрес Мускетти, ужасы, фэнтези, триллер, 2013) [BDRip-AVC, Пр ...
  • Возвращение героя / The Last Stand (Ким Чжи Ун, боевик, триллер, криминал, ...
  • АББА: фильм / ABBA: The Movie (документальный, драма, музыка, 1977) [BDRip- ...
  • Линкольн / Lincoln (Стивен Спилберг, драма, военный, биография, история, 20 ...
  • Неуязвимая мишень / Naam yi boon sik (Бенни Чан, Боевик, криминал, 2007) [B ...
  • Крученый мяч / Trouble with the Curve (Роберт Лоренц, Драма, 2012) [BDRip-A ...
  • Суррогат / The Sessions (Бен Луин, Драма, 2012) [BDRip-AVC, Профессиональны ...
  • Эд Вуд / Ed Wood (Тим Бёртон, драма, комедия, биография, 1994) [BDRip-AVC, ...
  • [EN] Летучий отряд Скотланд-Ярда / The Sweeney (Ник Лав, боевик, драма, кри ...
  • Информация
    Посетители, находящиеся в группе Гости, не могут оставлять комментарии к данной публикации.