вход на сайт

Имя пользователя :
Пароль :

Восстановление пароля Регистрация
Кодовое имя «Джеронимо» / Seal Team Six: The Raid on Osama Bin Laden (Джон Стокуэлл, боевик, триллер, драма, криминал, 2012) [HDRip, Профессиональный (многоголосный)]
Рейтинг:
(голосов: 1)



[img]{THEME}/images/logopost.png[/img]



Кодовое имя «Джеронимо» / Seal Team Six: The Raid on Osama Bin Laden
------



Год выпуска: 2012
Страна: США
Производство: Voltage Pictures, The Weinstein Company LLC
Жанр: боевик, триллер, драма, криминал

Режиссер: Джон Стокуэлл
В ролях: Кэм Жиганде, Энсон Маунт, Фредди Родригес, Иксзибит, Кеннет Миллер, Кэтлин Робертсон, Уильям Фихтнер, Мэтт Галлини, Эдди Кэй Томас, Лора Каннингэм и др.

Перевод: Профессиональный (многоголосный) [лицензия]
Субтитры: Отсутствуют

Описание: История о подразделении ВМС США — «Морские котики», которые убили Усаму бен Ладена в Пакистане в 2011 году. Фильм расскажет о том как «котики» готовились к этой миссии и об отважном ночном рейде на убежище бен Ладена.



Премьера (мир):26 октября 2012

МедиаИнфо ▼Text

D:Kodovoe.Jimya.Djereonimo.2012.P.HDRip.avi
General
Complete name : D:Kodovoe.Jimya.Djereonimo.2012.P.HDRip.avi
Format : AVI
Format/Info : Audio Video Interleave
File size : 1.37 GiB
Duration : 1h 40mn
Overall bit rate : 1 944 Kbps
Writing application : VirtualDubMod 1.5.10.2 (build 2540/release)
Writing library : VirtualDubMod build 2540/release
Video #0
ID : 0
Format : MPEG-4 Visual
Format profile : Advanced [email protected]
Format settings, BVOP : Yes
Format settings, QPel : No
Format settings, GMC : No warppoints
Format settings, Matrix : Default (MPEG)
Codec ID : XVID
Codec ID/Hint : XviD
Duration : 1h 40mn
Bit rate : 1 487 Kbps
Width : 720 pixels
Height : 384 pixels
Display aspect ratio : 1.875
Frame rate : 23.976 fps
Color space : YUV
Chroma subsampling : 4:2:0
Bit depth : 8 bits
Scan type : Progressive
Compression mode : Lossy
Bits/(Pixel*Frame) : 0.224
Stream size : 1.04 GiB (76%)
Writing library : XviD 1.2.1 (UTC 2008-12-04)
Audio #1
ID : 1
Format : AC-3
Format/Info : Audio Coding 3
Mode extension : CM (complete main)
Codec ID : 2000
Duration : 1h 40mn
Bit rate mode : Constant
Bit rate : 448 Kbps
Channel(s) : 6 channels
Channel positions : Front: L C R, Side: L R, LFE
Sampling rate : 48.0 KHz
Bit depth : 16 bits
Compression mode : Lossy
Stream size : 322 MiB (23%)
Alignment : Split accross interleaves
Interleave, duration : 42 ms (1.00 video frame)
Interleave, preload duration : 500 ms



Качество: HDRip
Продолжительность: 01:40:34

Формат: AVI
Видео кодек: XviD
Аудио кодек: AC3
Видео: 720x384 (1.88:1), 23.976 fps, XviD build 50 ~1486 kbps avg, 0.22 bit/pixel
Аудио: 48 kHz, AC3 Dolby Digital, 3/2 (L,C,R,l,r) + LFE ch, ~448.00 kbps avg





7b8a734c843723cf1c0cc02212c950cd29633f7aКодовое имя «Джеронимо» / Seal Team Six: The Raid on Osama Bin Laden (Джон Стокуэлл, боевик, триллер, драма, криминал, 2012) [HDRip, Профессиональный (многоголосный)] Кодовое имя «Джеронимо» / Seal Team Six: The Raid on Osama Bin Laden (Джон Стокуэлл, боевик, триллер, драма, криминал, 2012) [HDRip, Профессиональный (многоголосный)] " />

Аплоадер: Админ, дата: 20-06-2013, 09:48, торрент скачан: 359 раз

Понравилась раздача? Посмотрите эти:
  • Готовые на всё / Workers - Pronti a tutto (Лоренцо Виньоло, Комедия, 2012) ...
  • Погнали! / Getaway (Кортни Соломон, Боевик, Криминал, 2013) [HDRip, Професс ...
  • Орудие смерти / A-i-deul... (Ли Гю Ман, Триллер, криминал, 2011) [DVDRip, П ...
  • Марафон / De Marathon (Дидрик Копал, комедия, спорт, 2012) [HDRip, Професси ...
  • Марафон / De Marathon (Дидрик Копал, комедия, спорт, 2012) [HDRip, Професси ...
  • Верное дельце / Une pure affaire (Александр Коффре, Боевик, Комедия, Кримин ...
  • Мои герои / Mes heros (Эрик Беснард, комедия, 2012) [HDRip, Профессиональны ...
  • Кодовое имя «Джеронимо» / Seal Team Six: The Raid on Osama Bin Laden (Джон ...
  • Кодовое имя «Джеронимо» / Seal Team Six: The Raid on Osama Bin Laden (Джон ...
  • Мужество / Wymyk (Грег Зглински, драма, 2011) [DVDRip, Любительский (одного ...
  • Ночь тамплиера / Night of the Templar (Пол Сэмпсон, Ужасы, фантастика, боев ...
  • Вампирская сага / True Bloodthirst (Тодор Чапканов, Ужасы,Фантастика,Боевик ...
  • Решала (Роман Асхаев, Драма,Криминал, 2012) [WEB-DLRip, Не требуется]
  • Подмена / Switch (Фредерик Шёндёрфер, триллер, криминал, 2011) [HDRip, Проф ...
  • Звук моего голоса / Sound of My Voice (Зал Батманглидж, триллер, драма, 201 ...
  • Слепой поворот / Blind Turn (Роберт Орр, Триллер, драма, детектив, 2012) [W ...
  • 23:59 / 23:59 (Гилберт Чан, Ужасы, 2011) [HDRip, Любительский (одноголосый ...
  • Варвары и воры / Heathens and Thieves (Меган Петерсон, Джон Синклер, трилле ...
  • Псы войны / The Dogs of War (Джон Ирвин, боевик, драма, приключения, военны ...
  • Супер циклон / Super Cyclone (Лиз Адамс / Liz Adams, боевик, 2012) [HDRip, ...
  • Захват / Carjacked (Джон Бонито, триллер, 2011)[BDRip, Профессиональный (мн ...
  • Коллекционер 2 / The Collection (Маркус Данстэн, ужасы, боевик, триллер , 2 ...
  • Tank Feat. T.I. & Kris Stephens / Compliments [2012, RnB,Hip-Hop, HDRip]
  • Супершторм в Сиэтле / Seattle Superstorm (Джейсон Бурк, фантастика, боевик ...
  • Девушки в опасности / Damsels in Distress (Уит Стиллман, драма, мелодрама, ...
  • Информация
    Посетители, находящиеся в группе Гости, не могут оставлять комментарии к данной публикации.