вход на сайт

Имя пользователя :
Пароль :

Восстановление пароля Регистрация
Безумный Макс 3: Под куполом грома / Mad Max Beyond Thunderdome (Джордж Миллер, Джордж Огилве, Боевик, триллер, приключения, 1985) [BDRip, Дубляж]
Рейтинг:
(голосов: 1)



[img]{THEME}/images/logopost.png[/img]



Безумный Макс 3: Под куполом грома / Mad Max Beyond Thunderdome
«Входят двое, выходит только один.»

Год выпуска: 1985
Страна: США, Австралия
Производство: Kennedy Miller Productions
Жанр: Боевик, триллер, приключения

Режиссёр: Джордж Миллер, Джордж Огилве
В ролях: Мэл Гибсон, Тина Тёрнер, Брюс Спенс, Фрэнк Тринг, Анджело Росситто, Роберт Грубб, Джастин Кларк, Тушка Берген, Адам Кокберн, Пол Ларссон, Джордж Спартелс.

Перевод: Дубляж
Субтитры: Отсутствуют

Описание: В городе Батертауне правит коварная властительница Энтити. Для укрепления своей власти она пытается использовать Макса, непревзойденного мастера дорожных схваток. Но теперь завораживающую череду автомобильных разборок под испепеляющим солнцем начинают сменять невероятные рукопашные бои.



Качество: BDRip [Blu-ray Disc (EUR)] | Сэмпл
Продолжительность: 01:46:58 час.

Формат: AVI
Видео кодек: XviD
Аудио кодек: AC3
Видео: 720x304 (2.35:1), 23.976 fps, XviD build 65 ~1 565 kbps avg, 0.298 bit/pixel
Аудио: 48 kHz, AC3 Dolby Digital, 3/2 (L,C,R,l,r) + LFE ch, ~384 kbps avg - (Dub)

Дата премьеры (мир): 10 июля 1985

MediaInfo ▼General
Complete name : DMad.Max.Beyond.Thunderdome.1985.Dub.BDRip.1,46Gb.XviD.AC3.avi
Format : AVI
Format/Info : Audio Video Interleave
File size : 1.46 GiB
Duration : 1h 46mn
Overall bit rate : 1 958 Kbps
Writing application : VirtualDubModRus 1.5.10.2 (build 2542/release)
Writing library : VirtualDubMod build 2542/release

Video
ID : 0
Format : MPEG-4 Visual
Format profile : Advanced [email protected]
Format settings, BVOP : 1
Format settings, QPel : No
Format settings, GMC : No warppoints
Format settings, Matrix : Custom
Codec ID : XVID
Codec ID/Hint : XviD
Duration : 1h 46mn
Bit rate : 1 565 Kbps
Width : 720 pixels
Height : 304 pixels
Display aspect ratio : 2.35:1
Frame rate : 23.976 fps
Color space : YUV
Chroma subsampling : 4:2:0
Bit depth : 8 bits
Scan type : Progressive
Compression mode : Lossy
Bits/(Pixel*Frame) : 0.298
Stream size : 1.17 GiB (80%)
Writing library : XviD 65

Audio
ID : 1
Format : AC-3
Format/Info : Audio Coding 3
Mode extension : CM (complete main)
Format settings, Endianness : Big
Codec ID : 2000
Duration : 1h 46mn
Bit rate mode : Constant
Bit rate : 384 Kbps
Channel(s) : 6 channels
Channel positions : Front: L C R, Side: L R, LFE
Sampling rate : 48.0 KHz
Bit depth : 16 bits
Compression mode : Lossy
Stream size : 294 MiB (20%)
Alignment : Split accross interleaves
Interleave, duration : 42 ms (1.00 video frame)
Interleave, preload duration : 500 ms
Title : Dub






db069552be7f91ad7ea4e178f33830841830035cБезумный Макс 3: Под куполом грома / Mad Max Beyond Thunderdome (Джордж Миллер, Джордж Огилве, Боевик, триллер, приключения, 1985) [BDRip, Дубляж] Безумный Макс 3: Под куполом грома / Mad Max Beyond Thunderdome (Джордж Миллер, Джордж Огилве, Боевик, триллер, приключения, 1985) [BDRip, Дубляж] " />

Аплоадер: Админ, дата: 16-06-2013, 12:06, торрент скачан: 359 раз

Понравилась раздача? Посмотрите эти:
  • Безумный Макс [Трилогия] / Mad Max [Trilogy] (Джордж Миллер, Джордж Огилве, ...
  • Война миров Z [Театральная версия] / World War Z [Theatrical Cut] (Марк Фор ...
  • Великий Гэтсби / The Great Gatsby (Баз Лурман, Драма, мелодрама, 2013) [BDR ...
  • Возвращение героя / The Last Stand (Ким Чжи-ун, Боевик, триллер, криминал, ...
  • Безумный Макс 3: Под куполом грома / Mad Max Beyond Thunderdome (Джордж Мил ...
  • Неудержимый / Bullet to the Head (Уолтер Хилл, Боевик, триллер, криминал, 2 ...
  • Поймай толстуху, если сможешь [Театральная версия] / Identity Thief [Theatr ...
  • Крепкий орешек: Хороший день, чтобы умереть [Расширенная версия] / A Good D ...
  • Безумный Макс / Бешеный Макс / Mad Max (Джордж Миллер, Мел Гибсон, 1979) [B ...
  • [Трилогия] Безумный Макс 1,2,3 / [Trilogy]Mad Max1,2,3 (Джордж Миллер, Терр ...
  • Быстрее пули / Faster (Джордж Тиллман мл, Боевик, триллер, драма, криминал, ...
  • Безумный Макс 3: Под куполом грома / Mad Max 3: Beyond Thunderdome (Джордж ...
  • Безумный Макс 2: Воин дороги / Mad Max 2 (Джордж Миллер, боевик, триллер, п ...
  • Захват / Carjacked (Джон Бонито, триллер, 2011)[BDRip, Профессиональный (мн ...
  • Быстрее пули / Faster (Джордж Тиллман мл., боевик, триллер, драма, криминал ...
  • Безумный Макс / Mad Max (Джордж Миллер / George Miller, Фантастика, боевик, ...
  • Безумный Макс 3: Под Куполом Грома / Mad Max Beyond Thunderdome (Джордж Мил ...
  • Мартовские иды / The Ides of March (Джордж Клуни, Драма, 2011) [HDRip, Полн ...
  • Супершторм в Сиэтле / Seattle Superstorm (Джейсон Бурк, фантастика, боевик ...
  • Робинзон Крузо / Robinson Crusoe (Род Харди, Джордж Миллер, драма, приключе ...
  • Информация
    Посетители, находящиеся в группе Гости, не могут оставлять комментарии к данной публикации.