вход на сайт

Имя пользователя :
Пароль :

Восстановление пароля Регистрация
Войны орков / Orc Wars (Кол Гласс, Боевик, 2013) [DVDRip, Профессиональный (многоголосный)]
Рейтинг:
(голосов: 1)



[img]{THEME}/images/logopost.png[/img]



Войны орков / Orc Wars
------



Год выпуска: 2013
Страна: США
Производство: Arrowstorm Entertainment
Жанр: Боевик

Режиссер: Кол Гласс
В ролях: Расти Джойнер, Масьела Луша, Уэсли Джон, Айзек С. Синглтон мл., Маклейн Нельсон, Адам Джонсон, Клэр Нидерпрюэм, Джейк Ван Вагонер, Роки Майерс, Марк Броксмит

Перевод: Профессиональный (многоголосный)
Субтитры: Отсутствуют

Описание: Спасаясь от армии орков, принцесса Алея открывает магический портал и попадает в наш мир. Однако и здесь кровожадные дикари продолжают её преследовать. К счастью, девушка находит себе защитника в лице бывшего морпеха Джона, который с помощью незнакомого оркам огнестрельного оружия, легко даёт отпор преследователям. Однако, когда те призывают к себе на помощь настоящего дракона, Джон понимает, что без помощи друзей и тяжелой техники здесь не обойтись...



Премьера (мир): 2 февраля 2013

МедиаИнфо ▼Text

D:Vojny.orkov.2013.P.DVDRip.745MB.avi
General
Complete name : D:Vojny.orkov.2013.P.DVDRip.745MB.avi
Format : AVI
Format/Info : Audio Video Interleave
File size : 746 MiB
Duration : 1h 37mn
Overall bit rate : 1 071 Kbps
Writing application : VirtualDubMod 1.5.10.2 (build 2540/release)
Writing library : VirtualDubMod build 2540/release
Video #0
ID : 0
Format : MPEG-4 Visual
Format profile : Advanced [email protected]
Format settings, BVOP : Yes
Format settings, QPel : No
Format settings, GMC : No warppoints
Format settings, Matrix : Default (MPEG)
Codec ID : XVID
Codec ID/Hint : XviD
Duration : 1h 37mn
Bit rate : 931 Kbps
Width : 640 pixels
Height : 352 pixels
Display aspect ratio : 16:9
Frame rate : 29.970 fps
Color space : YUV
Chroma subsampling : 4:2:0
Bit depth : 8 bits
Scan type : Progressive
Compression mode : Lossy
Bits/(Pixel*Frame) : 0.138
Stream size : 648 MiB (87%)
Writing library : XviD 1.2.1 (UTC 2008-12-04)
Audio #1
ID : 1
Format : MPEG Audio
Format version : Version 1
Format profile : Layer 3
Mode : Joint stereo
Mode extension : MS Stereo
Codec ID : 55
Codec ID/Hint : MP3
Duration : 1h 37mn
Bit rate mode : Constant
Bit rate : 128 Kbps
Channel(s) : 2 channels
Sampling rate : 48.0 KHz
Compression mode : Lossy
Stream size : 89.1 MiB (12%)
Alignment : Aligned on interleaves
Interleave, duration : 33 ms (1.00 video frame)
Interleave, preload duration : 504 ms



Качество: DVDRip
Продолжительность: 01:37:21

Формат: AVI
Видео кодек: XviD
Аудио кодек: MP3
Видео: 640x352 (1.82:1), 29.970 fps, XviD build 50 ~930 kbps avg, 0.14 bit/pixel
Аудио: 48 kHz, MPEG Layer 3, 2 ch, ~128.00 kbps avg





b28a044bfd016efd2cddac61a6c0a08120953737Войны орков / Orc Wars (Кол Гласс, Боевик, 2013) [DVDRip, Профессиональный (многоголосный)] Войны орков / Orc Wars (Кол Гласс, Боевик, 2013) [DVDRip, Профессиональный (многоголосный)] " />

Аплоадер: Админ, дата: 4-09-2013, 20:35, торрент скачан: 359 раз

Понравилась раздача? Посмотрите эти:
  • Непристойная комедия / InAPPropriate Comedy (Винс Оффер, комедия, 2013) [DV ...
  • Готовые на всё / Workers - Pronti a tutto (Лоренцо Виньоло, Комедия, 2012) ...
  • Погнали! / Getaway (Кортни Соломон, Боевик,Криминал, 2013) [HDRip, Професси ...
  • Войны орков / Orc Warse (Кол Гласс, боевик, 2013) [HDRip, Профессиональный ...
  • Номад: Начало / Nomad the Beginning (Томас Диксон, фантастика, боевик, 2013 ...
  • Посылка / The Package (Джесси Джонсон, боевик, 2013) [HDRip, Профессиональн ...
  • Посылка / The Package (Джесси Джонсон, боевик, 2013) [HDRip, Профессиональн ...
  • Мужество / Wymyk (Грег Зглински, драма, 2011) [DVDRip, Любительский (одного ...
  • Слепой поворот / Blind Turn (Роберт Орр, Триллер, драма, детектив, 2012) [W ...
  • Чемпионат Италии 2012-13 / 36-й тур / Рома — Кьево / НТВ+ [07.05.2013, SD, ...
  • Псы войны / The Dogs of War (Джон Ирвин, боевик, драма, приключения, военны ...
  • Молодежный чемпионат мира 2012 (U-20). Четвертьфинал: Россия - Чехия [02.01 ...
  • Чемпионат Испании 2011-12 / 36-й тур / Реал Мадрид - Севилья / НТВ+ [Футбол ...
  • Чемпионат Европы 2012 / Группа C / 1-й тур / Ирландия — Хорватия / ТРК Футб ...
  • Чемпионат Европы 2012 / Группа D / 1-й тур / Украина - Швеция / Спорт 1 [11 ...
  • Олимпиада 2012 / Мужчины / Группа D / 1-й тур / Испания — Япония / НТВ+ [Фу ...
  • Олимпиада 2012 / Футбол / Мужчины / Группа A / 3-й тур / Великобритания - У ...
  • Tank Feat. T.I. & Kris Stephens / Compliments [2012, RnB,Hip-Hop, HDRip]
  • Неделя в NBA с В.Гомельским / НТВ+ [28.06.2011, SD, XviD, RU, SAT]
  • Чемпионат Англии 2011-2012 / Championship / 45-й Тур / Обзор Матчей / НТВ+ ...
  • Чемпионат Европы 2012 / Группа B / 1-й тур / Германия - Португалия / Спорт ...
  • NBA Finals 2012 / Sportscenter / В преддверии 3-ей игры / Viasat Sport [Бас ...
  • Товарищеский матч 2012 / АмаЗулу (ЮАР) - Манчестер Юнайтед (Англия) / MU TV ...
  • Олимпиада 2012 / Женщины, Мужчины / Плавание / Квалификация / НТВ+ [30.07.2 ...
  • Петля времени / Looper (Райан Джонсон, фантастика, боевик, триллер, 2012) [ ...
  • Информация
    Посетители, находящиеся в группе Гости, не могут оставлять комментарии к данной публикации.