вход на сайт

Имя пользователя :
Пароль :

Восстановление пароля Регистрация
Ананасовый экспресс: Сижу, курю / Pineapple Express (Дэвид Гордон Грин, боевик, комедия, криминал, 2008) [BDRip-AVC, Дублированный + Субтитры]
Рейтинг:
(голосов: 1)



[img]{THEME}/images/logopost.png[/img]



Ананасовый экспресс: Сижу, курю / Pineapple Express
«Put this in your pipe and smoke it.»

Год выпуска: 2008
Страна: США
Производство: Columbia Pictures
Жанр: боевик, комедия, криминал

Режиссёр: Дэвид Гордон Грин
В ролях: Сет Роджен, Джеймс Франко, Дэнни МакБрайд, Кевин Корригэн, Крэйг Робинсон, Гари Коул, Рози Перес, Эд Бегли мл., Нора Данн, Эмбер Хёрд, Артур Напионтек, Клео Кинг, Билл Хадер, Джеймс Ремар, Джонатан Спенсер, Дэна Ли, Бобби Ли, Кен Жонг, Дэвид С. Кук...

Перевод: Дублированный
Субтитры: Русские, английские (отключаемые)

Описание: Раздолбай и любитель травки случайно становится свидетелем убийства и, прихватив своего дружка, такого же лузера, как он, пытается свалить из города, спасаясь от Плохих Парней. Дело пахнет керосином, ведь мафия решила заставить приятелей замолчать навсегда.


Дата премьеры (мир): 6 августа 2008
Дата премьеры (РФ): 4 декабря 2008

Качество: BDRip-AVC
Продолжительность: 01:52:00

Формат: MKV
Видео кодек: х.264
Аудио кодек: AC3
Видео: 1024х432 (2,40:1), 23,976 fps, х.264 ~1473 kbps, 0.139 bit/pixel
Аудио: 48 kHz, AC3 Dolby Digital, 6 ch, ~384.00 kbps
MediaInfo ▼Общее
Уникальный идентификатор : 216500553020782103098115095123040524452 (0xA2E07D63CA07C944B7CDB87A68DDD8A4)
Полное имя : D:Pineapple Express.2008.BDRip-AVC.mkv
Формат : Matroska
Версия формата : Version 4 / Version 2
Размер файла : 1,45 Гбайт
Продолжительность : 1 ч. 52 м.
Общий поток : 1858 Кбит/сек
Название фильма : Ананасовый экспресс: Сижу, курю / Pineapple Express (2008) BDRip-AVC rip by Rulya74
Дата кодирования : UTC 2013-10-06 15:48:37
Программа кодирования : mkvmerge v6.2.0 (Promised Land) built on Apr 28 2013 12:22:01
Библиотека кодирования : libebml v1.3.0 + libmatroska v1.4.0

Видео
Идентификатор : 1
Формат : AVC
Формат/Информация : Advanced Video Codec
Профиль формата : [email protected]
Параметр CABAC формата : Да
Параметр ReFrames формата : 8 кадров
Идентификатор кодека : V_MPEG4/ISO/AVC
Продолжительность : 1 ч. 52 м.
Битрейт : 1473 Кбит/сек
Ширина : 1024 пикселя
Высота : 432 пикселя
Соотношение сторон : 2,40:1
Режим частоты кадров : Постоянный
Частота кадров : 23,976 кадра/сек
Цветовое пространство : YUV
Субдискретизация насыщенности : 4:2:0
Битовая глубина : 8 бит
Тип развёртки : Прогрессивная
Бит/(Пиксели*Кадры) : 0.139
Размер потока : 1,12 Гбайт (77%)
Библиотека кодирования : x264 core 133 r2334 a3ac64b
Настройки программы : cabac=1 / ref=8 / deblock=1:-2:-2 / analyse=0x3:0x113 / me=umh / subme=9 / psy=1 / psy_rd=1.00:0.08 / mixed_ref=1 / me_range=32 / chroma_me=1 / trellis=2 / 8x8dct=1 / cqm=0 / deadzone=21,11 / fast_pskip=0 / chroma_qp_offset=-3 / threads=4 / lookahead_threads=1 / sliced_threads=0 / nr=0 / decimate=1 / interlaced=0 / bluray_compat=0 / constrained_intra=0 / bframes=5 / b_pyramid=2 / b_adapt=1 / b_bias=0 / direct=3 / weightb=1 / open_gop=0 / weightp=2 / keyint=240 / keyint_min=23 / scenecut=40 / intra_refresh=0 / rc_lookahead=40 / rc=2pass / mbtree=1 / bitrate=1473 / ratetol=1.0 / qcomp=0.60 / qpmin=10 / qpmax=69 / qpstep=4 / cplxblur=20.0 / qblur=0.5 / vbv_maxrate=62500 / vbv_bufsize=78125 / nal_hrd=none / ip_ratio=1.40 / aq=2:1.00
Default : Да
Forced : Нет

Аудио
Идентификатор : 2
Формат : AC-3
Формат/Информация : Audio Coding 3
Расширение режима : CM (complete main)
Параметр Endianness формата : Big
Идентификатор кодека : A_AC3
Продолжительность : 1 ч. 52 м.
Вид битрейта : Постоянный
Битрейт : 384 Кбит/сек
Каналы : 6 каналов
Расположение каналов : Front: L C R, Side: L R, LFE
Частота : 48,0 КГц
Битовая глубина : 16 бит
Метод сжатия : С потерями
Размер потока : 308 Мбайт (21%)
Заголовок : Дублированный
Язык : Russian
Default : Да
Forced : Нет

Текст #1
Идентификатор : 3
Формат : UTF-8
Идентификатор кодека : S_TEXT/UTF8
Идентификатор кодека/Информация : UTF-8 Plain Text
Язык : Russian
Default : Да
Forced : Н
131d33d31890cb329bc18accab15ea7851a1d9c2Ананасовый экспресс: Сижу, курю / Pineapple Express (Дэвид Гордон Грин, боевик, комедия, криминал, 2008) [BDRip-AVC, Дублированный + Субтитры] Ананасовый экспресс: Сижу, курю / Pineapple Express (Дэвид Гордон Грин, боевик, комедия, криминал, 2008) [BDRip-AVC, Дублированный + Субтитры] " />

Аплоадер: Админ, дата: 7-10-2013, 21:25, торрент скачан: 359 раз

Понравилась раздача? Посмотрите эти:
  • Ананасовый экспресс: Сижу, курю / Pineapple Express [EXTENDED] (Дэвид Гордо ...
  • Бунраку / Bunraku (Гай Моше, боевик, триллер, драма, 2010) [BDRip-AVC, Проф ...
  • Одноклассники 2 / Grown Ups 2 (Деннис Дуган, Комедия, 2013) [BDRip-AVC, Про ...
  • Ананасовый экспресс. Сижу, курю / Pineapple Express [Theatrical Cut] (Дэвид ...
  • Ананасовый экспресс: Сижу, курю [Расширенная версия] / Pineapple Express [U ...
  • Иллюзия обмана / Now You See Me [Extended Cut] (Луи Летерье, триллер, крими ...
  • Поймай толстуху, если сможешь / Identity Thief [Theatrical Cut] (Сет Гордон ...
  • Поймай толстуху, если сможешь [Театральная версия] / Identity Thief [Theatr ...
  • Больше, чем любовь / A Lot Like Love (Найджел Коул, Драма, мелодрама, комед ...
  • Ангелы Чарли / Charlies Angels (МакДжи, Боевик, триллер, комедия, криминал, ...
  • Ананасовый экспресс: Сижу, курю / Pineapple Express [Расширенная версия ...
  • Толстяк на ринге / Here Comes the Boom (Фрэнк Корачи, Боевик, комедия, 2012 ...
  • Ананасовый экспресс: Сижу, курю / Pineapple Express (Дэвид Гордон Грин, бое ...
  • Ананасовый экспресс (Расширенная версия) / Pineapple Express (Extended Cut) ...
  • Ананасовый экспресс: Сижу, курю [Расширенная версия] / Pineapple Express [U ...
  • Ананасовый экспресс: сижу, курю / Pineapple Express (Дэвид Гордон Грин, ком ...
  • Ананасовый экспресс: Сижу, курю / Pineapple Express (Дэвид Гордон Грин, Три ...
  • Ананасовый экспресс: Сижу, курю / Pineapple Express (Дэвид Гордон Грин, три ...
  • Ананасовый экспресс: Сижу, курю / Pineapple Express (Дэвид Гордон Грин,боев ...
  • Ананасовый экспресс: Сижу, курю / Pineapple Express (Дэвид Гордон Грин, бое ...
  • Информация
    Посетители, находящиеся в группе Гости, не могут оставлять комментарии к данной публикации.