вход на сайт

Имя пользователя :
Пароль :

Восстановление пароля Регистрация
Враг государства №1: Легенда / Lennemi public n°1 (Жан-Франсуа Рише, Боевик, триллер, драма, криминал, биография, 2008) [BDRip, Профессиональный (полное дублирование)]
Рейтинг:
(голосов: 1)



[img]{THEME}/images/logopost.png[/img]



Враг государства №1: Легенда / Lennemi public n°1
«Ставка на бессмертие - жизнь»

Год выпуска: 2008
Страна: Франция , Канада
Производство: Canal+ [fr], La Petite Reine, M6 Films, Pathé, Remstar Productions Inc.
Жанр: Боевик, триллер, драма, криминал, биография

Режиссёр: Жан-Франсуа Рише
В ролях: Венсан Кассель, Людивин Санье, Матье Амальрик, Жерар Ланвен, Сэмюэл Ле Бьян, Оливье Гурме, Мишель Дюшоссуа, Мириам Буайе, Анна Консиньи, Жорж Вильсон

Перевод: Профессиональный (полное дублирование)
Субтитры: Отсутствуют

Описание: Жак Мерин, великий французский гангстер, прославился у себя на родине больше, чем самая яркая кинозвезда. Авантюры Мерина всегда были головокружительно бесшабашными, отчаянно дерзкими и абсолютно непредсказуемыми по своему замыслу. Не зря его называли «человеком с тысячью лиц». Отправляясь на новое крупное «дело», он всегда изменял облик, делал пластические операции, использовал грим… перевоплощаясь до неузнаваемости. Его боготворил народ, им восхищались женщины, а власти считали «врагом государства номер один»! А он и был именно таков. Его лихие «подвиги» и многочисленные побеги из тюрем, умопомрачительные любовные романы, феерические приключения и исключительно циничное, но по-галльски остроумное многолетнее издевательство над полицией — все это ныне превратилось для французов в подлинный народный эпос. Эпос о человеке, который умел быть настоящим героем. Или антигероем…



Релиз от:

Качество: BDRip
Продолжительность: 02:13:17 час.

Формат: AVI
Видео кодек: XviD
Аудио кодек: AC3
Видео: 704x384 (16:9), 25 fps, XviD build 65 ~1948 kbps avg, 0.301 bit/pixel
Аудио#1: 48 kHz, AC3, 3/2 (L,C,R,l,r) + LFE ch, ~384 kbps| Профессиональный (полное дублирование)

Премьера (мир) - 22 октября 2008
Премьера (РФ) - 11 декабря 2008, «Top Film Distribution»

MediaInfo ▼ Общее
Полное имя : L:ФильмыUpload new 18Vrag.gosudarstva.1.Legenda.2008.BDRip..avi
Формат : AVI
Формат/Информация : Audio Video Interleave
Профиль формата : OpenDML
Размер файла : 2,18 Гбайт
Продолжительность : 2 ч. 13 м.
Общий поток : 2344 Кбит/сек
Название фильма : Vrag.gosudarstva.№1.Legenda.2008.BDRip.
Режиссёр : Orbit
Программа кодирования : VirtualDubMod 1.5.10.2 (build 2542/release)
Примечание : 27.02.2011

Видео
Идентификатор : 0
Формат : MPEG-4 Visual
Профиль формата : Advanced [email protected]
Параметр BVOP формата : 1
Параметр QPel формата : Нет
Параметр GMC формата : Без точки перехода
Параметр матрицы формата : Выборочная
Идентификатор кодека : XVID
Идентификатор кодека/Подсказка : XviD
Продолжительность : 2 ч. 13 м.
Битрейт : 1948 Кбит/сек
Ширина : 704 пикс.
Высота : 384 пикс.
Соотношение сторон : 16:9
Частота кадров : 23,976 кадр/сек
Цветовое пространство : YUV
Подвыборка цветности : 4:2:0
Битовая глубина : 8 бит
Тип развёртки : Прогрессивная
Метод сжатия : С потерями
Бит/(Пиксели*Кадры) : 0.301
Размер потока : 1,81 Гбайт (83%)
Библиотека кодирования : XviD 57

Аудио
Идентификатор : 1
Формат : AC-3
Формат/Информация : Audio Coding 3
Расширение режима : CM (complete main)
Идентификатор кодека : 2000
Продолжительность : 2 ч. 13 м.
Вид битрейта : Постоянный
Битрейт : 384 Кбит/сек
Канал(ы) : 6 канала(ов)
Расположение каналов : Front: L C R, Side: L R, LFE
Частота : 48,0 КГц
Битовая глубина : 16 бит
Метод сжатия : С потерями
Размер потока : 366 Мбайт (16%)
Выравнивание : Разделение по промежуткам
Продолжительность промежутка : 42 мс. (1,00 видеокадр)
Время предзагрузки промежутка : 500 ms




c6fc871bdc7dba0de6012de6fbaf66459beb656aВраг государства №1: Легенда / Lennemi public n°1 (Жан-Франсуа Рише, Боевик, триллер, драма, криминал, биография, 2008) [BDRip, Профессиональный (полное дублирование)] Враг государства №1: Легенда / Lennemi public n°1 (Жан-Франсуа Рише, Боевик, триллер, драма, криминал, биография, 2008) [BDRip, Профессиональный (полное дублирование)] " />

Аплоадер: Админ, дата: 30-09-2013, 19:08, торрент скачан: 359 раз

Понравилась раздача? Посмотрите эти:
  • Бойфренд из будущего / About Time (Ричард Кёртис, Фантастика, драма, комеди ...
  • Мачете убивает / Machete Kills (Роберт Родригес, боевик, комедия, 2013) [HD ...
  • Малавита / The Family (Люк Бессон, Криминал, комедия, боевик, 2013) [DVDRip ...
  • Призрачный патруль / R.I.P.D. (Роберт Швентке, фэнтези, боевик, комедия, кр ...
  • Враг государства №1: Легенда / Lennemi public n°1 (Жан-Франсуа Рише, Боевик ...
  • Кровью и потом: Анаболики / Pain & Gain (Майкл Бэй, криминал, комедия, трил ...
  • Миллион для чайников / The Brass Teapot (Рамаа Мосли, Фэнтези, триллер, ком ...
  • Астрал на улице Арлетт / 388 Arletta Avenue (Рэндолл Коул, Триллер, 2011) [ ...
  • Тринадцать дней / Thirteen Days (Роджер Дональдсон, Триллер, драма, история ...
  • Моя прекрасная звезда / Ma bonne étoile (Энн Фассио, Драма, комедия, 2012) ...
  • Мулан / Mulan (Даррел Руни, Линн Сауферлэнд, мультфильм, мюзикл, приключен ...
  • [Дилогия] Враг государства №1/ Linstinct de mort (Жан-Франсуа Рише, триллер ...
  • Глушь / Resurrection County (Матт Зеттел, Ужасы,триллер, 2008) [DVDRip, Про ...
  • Жил-был тигр / Ek Tha Tiger (Кабир Кхан, боевик, триллер , 2012) [ HDRip, ...
  • Приключения Икабода и Мистера Тоада / The Adventures Of Ichabod And Mr. Toa ...
  • Легенда о МорДу / The Legend of MorDu (Брайан Ларсен, Короткометражный, ска ...
  • Дилогия: Враг Государства №1: Linstinct de mort / Враг Государства №1: Lenn ...
  • Боец из трущоб / Gutter King (Кейт Алан Моррис / Keith Alan Morris, боевик, ...
  • Дилогия: Враг государства №1 (Жан-Франсуа Рише, триллер, драма, криминал, 2 ...
  • Черная Маска / Black Mask (Дэниэл Ли, фантастика, боевик, триллер, комедия, ...
  • Люди Икс: Начало. Росомаха / X-Men Origins: Wolverine (Гэвин Худ, фантастик ...
  • Вызов / Defiance (Эдвард Цвик, боевик, триллер, драма, военный, история, 20 ...
  • Жизнь за брата / The Heavy (Маркус Уоррен, триллер, 2010) [DVDRip, Професси ...
  • Челюсти 3D / Shark Night 3D (Дэвид Р. Эллис, ужасы, триллер, 2011) [HDRip, ...
  • Глаз шторма / The Eye of the Storm (Фред Скеписи, Драма, 2011) [HDRip, Проф ...
  • Информация
    Посетители, находящиеся в группе Гости, не могут оставлять комментарии к данной публикации.