вход на сайт

Имя пользователя :
Пароль :

Восстановление пароля Регистрация
Погнали! / Getaway (Кортни Соломон, Боевик, Криминал, 2013) [HDRip, Профессиональный (многоголосый, закадровый) [Baibako]]
Рейтинг:
(голосов: 1)



[img]{THEME}/images/logopost.png[/img]



Погнали! / Getaway
«Get in. Get out. Getaway»



Год выпуска: 2013
Страна: США, Болгария
Производство: Dark Castle Entertainment
Жанр: Боевик, Криминал

Режиссер: Кортни Соломон
В ролях: Итан Хоук, Селена Гомес, Джон Войт, Ребекка Бьюдиг, Пол Фримен, Брюс Пэйн, Димо Алексиев, Велислав Павлов, Деян Ангелов

Перевод: Профессиональный (многоголосый, закадровый) [Baibako]
Субтитры: Отсутствуют

Описание: Бывшему гонщику Бренту приходится сесть за руль и следовать указаниям таинственного человека, чтобы спасти свою похищенную жену.



Премьера (мир): 26 августа 2013, ...

МедиаИнфо ▼Text

D:Pognali.2013.P.HDRip.1400Mb.avi
General
Complete name : D:Pognali.2013.P.HDRip.1400Mb.avi
Format : AVI
Format/Info : Audio Video Interleave
File size : 1.37 GiB
Duration : 1h 30mn
Overall bit rate : 2 172 Kbps
Writing application : VirtualDubMod 1.5.10.2 (build 2540/release)
Writing library : VirtualDubMod build 2540/release
Video #0
ID : 0
Format : MPEG-4 Visual
Format profile : Advanced [email protected]
Format settings, BVOP : Yes
Format settings, QPel : No
Format settings, GMC : No warppoints
Format settings, Matrix : Custom
Codec ID : XVID
Codec ID/Hint : XviD
Duration : 1h 30mn
Bit rate : 1 779 Kbps
Width : 720 pixels
Height : 304 pixels
Display aspect ratio : 2.35:1
Frame rate : 23.976 fps
Color space : YUV
Chroma subsampling : 4:2:0
Bit depth : 8 bits
Scan type : Progressive
Compression mode : Lossy
Bits/(Pixel*Frame) : 0.339
Stream size : 1.12 GiB (82%)
Writing library : XviD 1.2.1 (UTC 2008-12-04)
Audio #1
ID : 1
Format : AC-3
Format/Info : Audio Coding 3
Mode extension : CM (complete main)
Codec ID : 2000
Duration : 1h 30mn
Bit rate mode : Constant
Bit rate : 384 Kbps
Channel(s) : 6 channels
Channel positions : Front: L C R, Side: L R, LFE
Sampling rate : 48.0 KHz
Bit depth : 16 bits
Compression mode : Lossy
Stream size : 247 MiB (18%)
Alignment : Split accross interleaves
Interleave, duration : 42 ms (1.00 video frame)
Interleave, preload duration : 500 ms



Качество: HDRip
Продолжительность: 01:30:04

Формат: AVI
Видео кодек: XviD
Аудио кодек: AC3
Видео: 720x304 (2.37:1), 23.976 fps, XviD build 50 ~1778 kbps avg, 0.34 bit/pixel
Аудио: 48 kHz, AC3 Dolby Digital, 3/2 (L,C,R,l,r) + LFE ch, ~384 kbps





e19119ef18805b7de9f6f5ed3aa6dc6114b2658fПогнали! / Getaway (Кортни Соломон, Боевик, Криминал, 2013) [HDRip, Профессиональный (многоголосый, закадровый) [Baibako]] Погнали! / Getaway (Кортни Соломон, Боевик, Криминал, 2013) [HDRip, Профессиональный (многоголосый, закадровый) [Baibako]] " />

Аплоадер: Админ, дата: 25-11-2013, 14:56, торрент скачан: 359 раз

Понравилась раздача? Посмотрите эти:
  • Погнали! / Getaway (Кортни Соломон, боевик, криминал, 2013) [BDRip-AVC, Про ...
  • Погнали! / Getaway (Кортни Соломон, боевик, криминал, 2013) [BDRip, Професс ...
  • Погнали! / Getaway (Кортни Соломон, Боевик,Криминал, 2013) [HDRip, Професси ...
  • Погнали! / Getaway (Кортни Соломон, боевик, криминал, 2013) [BDRip 720p, Пр ...
  • Вирус / Flu (Ким Сон Су, Драма, 2013) [HDTVRip, Любительский (двухголосый з ...
  • Погнали! / Getaway (Кортни Соломон, боевик, криминал, 2013) [BDRip-AVC, Про ...
  • Орудие смерти / A-i-deul... (Ли Гю Ман, Триллер, криминал, 2011) [DVDRip, П ...
  • Верное дельце / Une pure affaire (Александр Коффре, Боевик, Комедия, Кримин ...
  • Мои герои / Mes heros (Эрик Беснард, комедия, 2012) [HDRip, Профессиональны ...
  • Посылка / The Package (Джесси Джонсон, боевик, 2013) [HDRip, Профессиональн ...
  • Мэрайа Мунди и шкатулка Мидаса / The Adventurer: The Curse of the Midas Box ...
  • Элитное общество / The Bling Ring (София Коппола, драма, криминал, 2013) [H ...
  • [Трейлер] Погнали! / Getaway (Кортни Соломон, Ярон Леви, Боевик, криминал) ...
  • Мужество / Wymyk (Грег Зглински, драма, 2011) [DVDRip, Любительский (одного ...
  • 42 / 42 (Брайан Хелгеленд, драма, биография, спорт, 2013) [BDRip, Профессио ...
  • Ночь тамплиера / Night of the Templar (Пол Сэмпсон, Ужасы, фантастика, боев ...
  • Звук моего голоса / Sound of My Voice (Зал Батманглидж, триллер, драма, 201 ...
  • 23:59 / 23:59 (Гилберт Чан, Ужасы, 2011) [HDRip, Любительский (одноголосый ...
  • В хлам / Smashed (Джеймс Понсольдт, Драма, комедия, 2012) [HDRip, Профессио ...
  • Супер циклон / Super Cyclone (Лиз Адамс / Liz Adams, боевик, 2012) [HDRip, ...
  • Захват / Carjacked (Джон Бонито, триллер, 2011)[BDRip, Профессиональный (мн ...
  • Трус / Faintheart (Вито Рокко, Комедия, 2008) [BDRip, Профессиональный (дву ...
  • Супершторм в Сиэтле / Seattle Superstorm (Джейсон Бурк, фантастика, боевик ...
  • Девушки в опасности / Damsels in Distress (Уит Стиллман, драма, мелодрама, ...
  • За гранью / Beyond (Йозеф Руснак, триллер, 2012) [HDRip, Профессиональный ...
  • Информация
    Посетители, находящиеся в группе Гости, не могут оставлять комментарии к данной публикации.