вход на сайт

Имя пользователя :
Пароль :

Восстановление пароля Регистрация
Бунраку / Bunraku (Гай Моше, боевик, триллер, драма, 2010) [BDRip-AVC, Профессиональный (многоголосый, закадровый) + Субтитры]
Рейтинг:
(голосов: 1)



[img]{THEME}/images/logopost.png[/img]



Бунраку / Bunraku
«A civilized weapon for uncivilized times»
Год выпуска: 2010
Страна: США
Производство: Picturesque Films, Ram Bergman Productions, Snoot Entertainment
Жанр: боевик, триллер, драма

Режиссёр: Гай Моше
В ролях: Джош Хартнетт, Вуди Харрельсон, Рон Перлман, Деми Мур, Гакт Камуи, Кевин МакКидд, Сюн Сугата, Эмили Кайхо, Хорди Молья, Майк Паттон...

Перевод: Профессиональный (многоголосый, закадровый)
Субтитры: Русские, Украинские, Английские (отключаемые)

Описание: Таинственный скиталец и молодой японский воин прибывают в терроризируемый преступниками город. У каждого своя миссия, но вскоре они объединяют силы, чтобы свергнуть коррумпированное господство.



Премьера (мир): 11 сентября 2010
Премьера (РФ): 4 сентября 2011
Качество: BDRip-AVC
Продолжительность: 02:04:28

Формат: MKV
Видео кодек: AVC
Аудио кодек: AC3
Видео: 912x384 (2,40:1), 23,976 fps, AVC ~1064 kbps, 0.127 bit/pixel
Аудио: 48 kHz, AC3 Dolby Digital, 2 ch, ~192.00 kbps
MediaInfo ▼Общее
Уникальный идентификатор : 185629475334823126173362127701521890311 (0x8BA6EFBF2C5C22B386B1BB338CDE7C07)
Полное имя : D:Bunraku.2010.BDRip-AVC.mkv
Формат : Matroska
Версия формата : Version 4 / Version 2
Размер файла : 1,09 Гбайт
Продолжительность : 2 ч. 4 м.
Общий поток : 1256 Кбит/сек
Название фильма : Бунраку / Bunraku (2010) BDRip-AVC
Дата кодирования : UTC 2014-01-22 07:35:36
Программа кодирования : mkvmerge v6.6.0 (The Edge Of The In Between) built on Dec 1 2013 17:55:00
Библиотека кодирования : libebml v1.3.0 + libmatroska v1.4.1

Видео
Идентификатор : 1
Формат : AVC
Формат/Информация : Advanced Video Codec
Профиль формата : [email protected]
Параметр CABAC формата : Да
Параметр ReFrames формата : 10 кадров
Идентификатор кодека : V_MPEG4/ISO/AVC
Продолжительность : 2 ч. 4 м.
Битрейт : 1064 Кбит/сек
Ширина : 912 пикселей
Высота : 384 пикселя
Соотношение сторон : 2,40:1
Режим частоты кадров : Постоянный
Частота кадров : 23,976 кадра/сек
Цветовое пространство : YUV
Субдискретизация насыщенности : 4:2:0
Битовая глубина : 8 бит
Тип развёртки : Прогрессивная
Бит/(Пиксели*Кадры) : 0.127
Размер потока : 925 Мбайт (83%)
Библиотека кодирования : x264 core 138 r2358 9e941d1
Настройки программы : cabac=1 / ref=10 / deblock=1:-2:-1 / analyse=0x3:0x2 / me=umh / subme=11 / psy=1 / psy_rd=1.00:0.10 / mixed_ref=1 / me_range=48 / chroma_me=1 / trellis=2 / 8x8dct=1 / cqm=0 / deadzone=21,11 / fast_pskip=0 / chroma_qp_offset=-3 / threads=10 / lookahead_threads=1 / sliced_threads=0 / nr=0 / decimate=1 / interlaced=0 / bluray_compat=0 / constrained_intra=0 / bframes=12 / b_pyramid=2 / b_adapt=1 / b_bias=0 / direct=3 / weightb=1 / open_gop=0 / weightp=2 / keyint=240 / keyint_min=23 / scenecut=40 / intra_refresh=0 / rc_lookahead=40 / rc=2pass / mbtree=1 / bitrate=1064 / ratetol=1.0 / qcomp=0.60 / qpmin=0 / qpmax=69 / qpstep=4 / cplxblur=20.0 / qblur=0.5 / vbv_maxrate=62500 / vbv_bufsize=78125 / nal_hrd=none / ip_ratio=1.40 / aq=1:1.00
Default : Да
Forced : Нет

Аудио
Идентификатор : 2
Формат : AC-3
Формат/Информация : Audio Coding 3
Профиль формата : Dolby Digital
Расширение режима : CM (complete main)
Параметр Endianness формата : Big
Идентификатор кодека : A_AC3
Продолжительность : 2 ч. 4 м.
Вид битрейта : Постоянный
Битрейт : 192 Кбит/сек
Каналы : 2 канала
Расположение каналов : Front: L R
Частота : 48,0 КГц
Битовая глубина : 16 бит
Метод сжатия : С потерями
Размер потока : 171 Мбайт (15%)
Заголовок : Профессиональный (многоголосый закадровый)
Язык : Russian
Default : Да
Forced : Нет

Текст #1
Идентификатор : 3
Формат : UTF-8
Идентификатор кодека : S_TEXT/UTF8
Идентификатор кодека/Информация : UTF-8 Plain Text
Язык : Russian
Default : Да
Forced : Нет

Текст #2
Идентификатор : 4
Формат : UTF-8
Идентификатор кодека : S_TEXT/UTF8
Идентификатор кодека/Информация : UTF-8 Plain Text
Язык : Ukrainian
Default : Нет
Forced : Нет

Текст #3
Идентификатор
551a5b12191f9c83f999f089f571f0e5dc1afa94Бунраку / Bunraku (Гай Моше, боевик, триллер, драма, 2010) [BDRip-AVC, Профессиональный (многоголосый, закадровый) + Субтитры] Бунраку / Bunraku (Гай Моше, боевик, триллер, драма, 2010) [BDRip-AVC, Профессиональный (многоголосый, закадровый) + Субтитры] " />

Аплоадер: Админ, дата: 22-01-2014, 19:08, торрент скачан: 359 раз

Понравилась раздача? Посмотрите эти:
  • Фрилансеры / Freelancers (Джесси Терреро, боевик, драма, криминал, детектив ...
  • Двойной агент / The Double (Майкл Брандт, боевик, триллер, драма, криминал, ...
  • Грязные игры / The Company You Keep (Роберт Редфорд, триллер, драма, 2012) ...
  • Кадиллак Рекордс / Cadillac Records (Дарнелл Мартин, драма, мелодрама, биог ...
  • Погнали! / Getaway (Кортни Соломон, боевик, криминал, 2013) [BDRip-AVC, Про ...
  • Летучий отряд Скотланд-Ярда / The Sweeney (Ник Лав, Боевик, драма, криминал ...
  • Поймай толстуху, если сможешь / Identity Thief [Theatrical Cut] (Сет Гордон ...
  • Залив / The Bay (Барри Левинсон, Ужасы, фантастика, триллер, 2012) [BDRip-A ...
  • Порочные игры / Stoker (Пак Чхан Ук, Триллер, драма, детектив, 2013) [BDRip ...
  • Порочные игры / Stoker (Пак Чхан Ук, Триллер, драма, детектив, 2013) [BDRip ...
  • Астрал на улице Арлетт / 388 Arletta Avenue (Рэндолл Коул, Триллер, 2011) [ ...
  • Паркер / Parker (Тейлор Хэкфорд, Боевик, триллер, криминал, 2013) [BDRip-AV ...
  • Неуязвимая мишень / Naam yi boon sik (Бенни Чан, Боевик, криминал, 2007) [B ...
  • Суррогат / The Sessions (Бен Луин, Драма, 2012) [BDRip-AVC, Профессиональны ...
  • Бунраку / Bunraku (Гай Моше, фэнтези, боевик, драма,2010) [HDRip-AVC, Профе ...
  • Начинающие / Beginners (Майк Миллс / Mike Mills, драма, мелодрама, комедия, ...
  • Эд Вуд / Ed Wood (Тим Бёртон, драма, комедия, биография, 1994) [BDRip-AVC, ...
  • Бульвар спасения / Salvation Boulevard (Джордж Рэтлифф, Боевик, триллер, др ...
  • Павшая империя / Hirokin (Алехо Мо-Сан, фантастика, боевик, драма, приключе ...
  • Бунраку / Bunraku (Гай Моше, боевик, триллер, драма, 2010) [HDRip,Профессио ...
  • Информация
    Посетители, находящиеся в группе Гости, не могут оставлять комментарии к данной публикации.