вход на сайт

Имя пользователя :
Пароль :

Восстановление пароля Регистрация
Двойной агент / The Double (Майкл Брандт, боевик, триллер, драма, криминал, детектив, 2011) [BDRip-AVC, Профессиональный (двухголосый, закадровый)]
Рейтинг:
(голосов: 1)



[img]{THEME}/images/logopost.png[/img]



Двойной агент / The Double
«Keep your enemies close»

•Год выпуска: 2011
•Страна: США
•Производство: Agent Two, Brandt/Haas Productions, Hyde Park Entertainment
•Жанр: боевик, триллер, драма, криминал, детектив

•Режиссёр: Майкл Брандт
•В ролях: Ричард Гир, Тофер Грейс, Мартин Шин, Тэмер Хассан, Стивен Мойер, Крис Маркетт, Одетт Эннэйбл, Стана Катич, Юрий Сардаров, Иван Федоров

•Перевод: Профессиональный (двухголосый, закадровый)
•Субтитры: Нет

•Описание: После убийства конгрессмена все улики указывают на то, что его совершил агент КГБ по кличке «Кассий». Но он давно считается погибшим… Чтобы найти убийцу ЦРУ объединяет молодого сотрудника и ветерана спецслужб — Пола, который на протяжении всей своей карьеры боролся с советскими агентами.


•Премьера (мир): 28 октября 2011
•релиз на DVD: 1 мая 2014

•Качество: BDRip-AVC
•Продолжительность: 01:38:20

•Формат: MKV
•Видео кодек: AVC
•Аудио кодек: AC3
•Видео: 928x396 (2,35:1), 23.976 fps, AVC ~932 kbps avg, 0.106 bit/pixel
•Аудио: 48 kHz, AC3 Dolby Digital, (L, R) ch, 128 kbps
MediaInfo ▼Общее
Уникальный идентификатор : 184597115449452262560045201407095030856 (0x8AE01C7983A7E422AE355860A3BF4448)
Полное имя : D:The Double.2011.BDRip-AVC.mkv
Формат : Matroska
Версия формата : Version 4 / Version 2
Размер файла : 746 Мбайт
Продолжительность : 1 ч. 38 м.
Общий поток : 1061 Кбит/сек
Название фильма : Двойной агент / The Double (2011) BDRip-AVC
Дата кодирования : UTC 2014-01-02 08:36:35
Программа кодирования : mkvmerge v6.5.0 (Isnt she lovely) built on Oct 20 2013 12:50:05
Библиотека кодирования : libebml v1.3.0 + libmatroska v1.4.1

Видео
Идентификатор : 1
Формат : AVC
Формат/Информация : Advanced Video Codec
Профиль формата : [email protected]
Параметр CABAC формата : Да
Параметр ReFrames формата : 10 кадров
Идентификатор кодека : V_MPEG4/ISO/AVC
Продолжительность : 1 ч. 38 м.
Битрейт : 932 Кбит/сек
Ширина : 928 пикселей
Высота : 396 пикселей
Соотношение сторон : 2,35:1
Режим частоты кадров : Постоянный
Частота кадров : 23,976 кадра/сек
Цветовое пространство : YUV
Субдискретизация насыщенности : 4:2:0
Битовая глубина : 8 бит
Тип развёртки : Прогрессивная
Бит/(Пиксели*Кадры) : 0.106
Размер потока : 641 Мбайт (86%)
Библиотека кодирования : x264 core 138 r2358 9e941d1
Настройки программы : cabac=1 / ref=10 / deblock=1:-1:-1 / analyse=0x3:0x112 / me=umh / subme=11 / psy=1 / psy_rd=1.00:0.00 / mixed_ref=1 / me_range=48 / chroma_me=1 / trellis=2 / 8x8dct=1 / cqm=0 / deadzone=21,11 / fast_pskip=0 / chroma_qp_offset=-2 / threads=4 / lookahead_threads=1 / sliced_threads=0 / nr=0 / decimate=1 / interlaced=0 / bluray_compat=0 / constrained_intra=0 / bframes=8 / b_pyramid=2 / b_adapt=1 / b_bias=0 / direct=3 / weightb=1 / open_gop=0 / weightp=2 / keyint=240 / keyint_min=23 / scenecut=40 / intra_refresh=0 / rc_lookahead=40 / rc=2pass / mbtree=1 / bitrate=932 / ratetol=1.0 / qcomp=0.60 / qpmin=0 / qpmax=69 / qpstep=4 / cplxblur=20.0 / qblur=0.5 / vbv_maxrate=62500 / vbv_bufsize=78125 / nal_hrd=none / ip_ratio=1.40 / aq=1:1.00
Default : Да
Forced : Нет

Аудио
Идентификатор : 2
Формат : AC-3
Формат/Информация : Audio Coding 3
Расширение режима : CM (complete main)
Параметр Endianness формата : Big
Идентификатор кодека : A_AC3
Продолжительность : 1 ч. 38 м.
Вид битрейта : Постоянный
Битрейт : 128 Кбит/сек
Каналы : 2 канала
Расположение каналов : Front: L R
Частота : 48,0 КГц
Битовая глубина : 16 бит
Метод сжатия : С потерями
Размер потока : 90,0 Мбайт (12%)
Заголовок : Профессиональный (двухголосый закадровый)
Язык : Russian
Default : Да
Forced : Нет


8a16ba3a588bd18e73642a9a881e8adfc24be70cДвойной агент / The Double (Майкл Брандт, боевик, триллер, драма, криминал, детектив, 2011) [BDRip-AVC, Профессиональный (двухголосый, закадровый)] Двойной агент / The Double (Майкл Брандт, боевик, триллер, драма, криминал, детектив, 2011) [BDRip-AVC, Профессиональный (двухголосый, закадровый)] " />

Аплоадер: Админ, дата: 2-01-2014, 22:57, торрент скачан: 359 раз

Понравилась раздача? Посмотрите эти:
  • Фрилансеры / Freelancers (Джесси Терреро, боевик, драма, криминал, детектив ...
  • Грязные игры / The Company You Keep (Роберт Редфорд, триллер, драма, 2012) ...
  • Бунраку / Bunraku (Гай Моше, боевик, триллер, драма, 2010) [BDRip-AVC, Проф ...
  • Погнали! / Getaway (Кортни Соломон, боевик, криминал, 2013) [BDRip-AVC, Про ...
  • 11.6 / 11.6 (Филипп Годо, Драма, триллер, криминал, 2013) [BDRip-AVC, Профе ...
  • Иллюзия обмана / Now You See Me [Extended Cut] (Луи Летерье, триллер, крими ...
  • Двойная страховка / Double Indemnity (Билли Уайлдер, фильм-нуар, триллер, д ...
  • Башня / The Tower (Чи-хун Ким, драма, 2012) [BDRip-AVC, Любительский (двухг ...
  • Летучий отряд Скотланд-Ярда / The Sweeney (Ник Лав, Боевик, драма, криминал ...
  • Вампирша / Rise (Себастьян Гутиеррес, ужасы, боевик, триллер, детектив, 200 ...
  • Порочные игры / Stoker (Пак Чхан Ук, Триллер, драма, детектив, 2013) [BDRip ...
  • Порочные игры / Stoker (Пак Чхан Ук, Триллер, драма, детектив, 2013) [BDRip ...
  • Рикошет / Ricochet (Ник Гомез, драма, детектив, 2011) [BDRip-AVC, Профессио ...
  • Паркер / Parker (Тейлор Хэкфорд, Боевик, триллер, криминал, 2013) [BDRip-AV ...
  • Джек Ричер / Jack Reacher (Кристофер МакКуорри, Боевик,триллер, криминал, д ...
  • Драйв / Drive (Николас Виндинг Рёфн, боевик, триллер, драма, криминал, 2011 ...
  • Драйв / Drive (Николас Виндинг Рёфн, боевик, триллер, драма, криминал, 2011 ...
  • Двойной агент / The Double (Майкл Брандт, триллер, 2011) [HDRip-AVC, Любите ...
  • Эд Вуд / Ed Wood (Тим Бёртон, драма, комедия, биография, 1994) [BDRip-AVC, ...
  • Халк против Росомахи / Hulk Vs. Wolverine (Сэм Лью, Фрэнк Пор, боевик, прик ...
  • Информация
    Посетители, находящиеся в группе Гости, не могут оставлять комментарии к данной публикации.