вход на сайт

Имя пользователя :
Пароль :

Восстановление пароля Регистрация
Фрилансеры / Freelancers (Джесси Терреро, боевик, драма, криминал, детектив, 2012) [BDRip-AVC, Профессиональный (двухголосый, закадровый)]
Рейтинг:
(голосов: 1)



[img]{THEME}/images/logopost.png[/img]



Фрилансеры / Freelancers
«To serve, protect... and steal»

•Год выпуска: 2012
•Страна: США
•Производство: Cheetah Vision, Emmett/Furla Films, Envision Entertainment Corporation
•Жанр: боевик, драма, криминал, детектив

•Режиссёр: Джесси Терреро
•В ролях: Фифти Сент, Форест Уитакер, Роберт Де Ниро, Малкольм Гудвин, Райан О’Нан, Анабель Акоста, Бо Гарретт, Майкл МакГрэйди, Мэтт Джералд, Роберт Уиздом

•Перевод: Профессиональный (двухголосый, закадровый)
•Субтитры: Нет

•Описание: Фильм расскажет о сыне убитого нью-йоркского копа, который вместе с двумя лучшими друзьями поступает в полицейскую академию, а после ее окончания парня берет под крыло бывший напарник его отца капитан Вик Сарконе, командующий оперативным отрядом по борьбе с уличной преступностью.


•Премьера (мир): 10 августа 2012

•Качество: BDRip-AVC
•Продолжительность: 01:36:32

•Формат: MKV
•Видео кодек: AVC
•Аудио кодек: AC3
•Видео: 928x384 (2,40:1), 23.976 fps, AVC ~952 kbps avg, 0.111 bit/pixel
•Аудио: 48 kHz, AC3 Dolby Digital, (L, R) ch, 128 kbps
MediaInfo ▼Общее
Уникальный идентификатор : 177542749934986480155125303747844498727 (0x85917D66DDC3218CB4EA95EDD2D7E527)
Полное имя : D:Freelancers.2012.BDRip-AVC.mkv
Формат : Matroska
Версия формата : Version 4 / Version 2
Размер файла : 745 Мбайт
Продолжительность : 1 ч. 36 м.
Общий поток : 1078 Кбит/сек
Название фильма : Фрилансеры / Freelancers (2012) BDRip-AVC
Дата кодирования : UTC 2014-01-01 20:13:33
Программа кодирования : mkvmerge v6.5.0 (Isnt she lovely) built on Oct 20 2013 12:50:05
Библиотека кодирования : libebml v1.3.0 + libmatroska v1.4.1

Видео
Идентификатор : 1
Формат : AVC
Формат/Информация : Advanced Video Codec
Профиль формата : [email protected]
Параметр CABAC формата : Да
Параметр ReFrames формата : 9 кадров
Идентификатор кодека : V_MPEG4/ISO/AVC
Продолжительность : 1 ч. 36 м.
Битрейт : 952 Кбит/сек
Ширина : 928 пикселей
Высота : 384 пикселя
Соотношение сторон : 2,40:1
Режим частоты кадров : Постоянный
Частота кадров : 23,976 кадра/сек
Цветовое пространство : YUV
Субдискретизация насыщенности : 4:2:0
Битовая глубина : 8 бит
Тип развёртки : Прогрессивная
Бит/(Пиксели*Кадры) : 0.111
Размер потока : 641 Мбайт (86%)
Библиотека кодирования : x264 core 138 r2358 9e941d1
Настройки программы : cabac=1 / ref=9 / deblock=1:-1:-1 / analyse=0x3:0x112 / me=umh / subme=11 / psy=1 / psy_rd=1.05:0.10 / mixed_ref=1 / me_range=48 / chroma_me=1 / trellis=2 / 8x8dct=1 / cqm=0 / deadzone=21,11 / fast_pskip=0 / chroma_qp_offset=-3 / threads=4 / lookahead_threads=1 / sliced_threads=0 / nr=0 / decimate=1 / interlaced=0 / bluray_compat=0 / constrained_intra=0 / bframes=12 / b_pyramid=2 / b_adapt=1 / b_bias=0 / direct=3 / weightb=1 / open_gop=0 / weightp=2 / keyint=240 / keyint_min=23 / scenecut=40 / intra_refresh=0 / rc_lookahead=40 / rc=2pass / mbtree=1 / bitrate=952 / ratetol=1.0 / qcomp=0.60 / qpmin=0 / qpmax=69 / qpstep=4 / cplxblur=20.0 / qblur=0.5 / vbv_maxrate=62500 / vbv_bufsize=78125 / nal_hrd=none / ip_ratio=1.40 / aq=1:1.00
Default : Да
Forced : Нет

Аудио
Идентификатор : 2
Формат : AC-3
Формат/Информация : Audio Coding 3
Расширение режима : CM (complete main)
Параметр Endianness формата : Big
Идентификатор кодека : A_AC3
Продолжительность : 1 ч. 36 м.
Вид битрейта : Постоянный
Битрейт : 128 Кбит/сек
Каналы : 2 канала
Расположение каналов : Front: L R
Частота : 48,0 КГц
Битовая глубина : 16 бит
Метод сжатия : С потерями
Размер потока : 88,4 Мбайт (12%)
Заголовок : Профессиональный (двухголосый закадровый)
Язык : Russian
Default : Да
Forced : Нет


52068c4df3854d5ae77a4d53aa9a1066d7ac7feaФрилансеры / Freelancers (Джесси Терреро, боевик, драма, криминал, детектив, 2012) [BDRip-AVC, Профессиональный (двухголосый, закадровый)] Фрилансеры / Freelancers (Джесси Терреро, боевик, драма, криминал, детектив, 2012) [BDRip-AVC, Профессиональный (двухголосый, закадровый)] " />

Аплоадер: Админ, дата: 2-01-2014, 22:21, торрент скачан: 359 раз

Понравилась раздача? Посмотрите эти:
  • Двойной агент / The Double (Майкл Брандт, боевик, триллер, драма, криминал, ...
  • Грязные игры / The Company You Keep (Роберт Редфорд, триллер, драма, 2012) ...
  • Бунраку / Bunraku (Гай Моше, боевик, триллер, драма, 2010) [BDRip-AVC, Проф ...
  • Погнали! / Getaway (Кортни Соломон, боевик, криминал, 2013) [BDRip 1080p, П ...
  • Погнали! / Getaway (Кортни Соломон, боевик, криминал, 2013) [BDRip-AVC, Про ...
  • 11.6 / 11.6 (Филипп Годо, Драма, триллер, криминал, 2013) [BDRip-AVC, Профе ...
  • Иллюзия обмана / Now You See Me [Extended Cut] (Луи Летерье, триллер, крими ...
  • Башня / The Tower (Чи-хун Ким, драма, 2012) [BDRip-AVC, Любительский (двухг ...
  • Летучий отряд Скотланд-Ярда / The Sweeney (Ник Лав, Боевик, драма, криминал ...
  • Поймай толстуху, если сможешь / Identity Thief [Theatrical Cut] (Сет Гордон ...
  • Порочные игры / Stoker (Пак Чхан Ук, Триллер, драма, детектив, 2013) [BDRip ...
  • Порочные игры / Stoker (Пак Чхан Ук, Триллер, драма, детектив, 2013) [BDRip ...
  • Рикошет / Ricochet (Ник Гомез, драма, детектив, 2011) [BDRip-AVC, Профессио ...
  • Перелом / Fracture (Грегори Хоблит, Триллер, драма, криминал, детектив, 200 ...
  • Суррогат / The Sessions (Бен Луин, Драма, 2012) [BDRip-AVC, Профессиональны ...
  • Образец 47 / Marvel One-Shot: Item 47 (Луис Д’Эспозито, короткометражка, фа ...
  • Эд Вуд / Ed Wood (Тим Бёртон, драма, комедия, биография, 1994) [BDRip-AVC, ...
  • Преследование / Слежка / Following (Кристофер Нолан, триллер, драма, кримин ...
  • Фрилансеры / Freelancers (Джесси Терреро, боевик, драма, криминал, детектив ...
  • Фрилансеры / Freelancers (Джесси Терреро, боевик, драма, криминал, детектив ...
  • Информация
    Посетители, находящиеся в группе Гости, не могут оставлять комментарии к данной публикации.