вход на сайт

Имя пользователя :
Пароль :

Восстановление пароля Регистрация
РЭД 2 / Red 2 (Дин Паризо, боевик, комедия, 2013) [BDRip-AVC, Профессиональный (полное дублирование), Subs]
Рейтинг:
(голосов: 1)



[img]{THEME}/images/logopost.png[/img]



РЭД 2 / Red 2
«Отдохнем на том свете»
Год выпуска: 2013
Страна:США, Франция, Канада
Производство: DC Entertainment, Di Bonaventura Pictures, Etalon film
Жанр: боевик, комедия

Режиссёр: Дин Паризо
В ролях: Брюс Уиллис, Джон Малкович, Мэри-Луиз Паркер, Кэтрин Зета-Джонс, Ли Бён Хон, Энтони Хопкинс, Хелен Миррен, Брайан Кокс, Дэвид Тьюлис, Чжон Кон Лии др.

Перевод: Профессиональный (полное дублирование)
Субтитры: Русские, английские (Full + SDH + Colored)
Описание: Вышедший на пенсию тайный агент ЦРУ Фрэнк Мозес объединяется с командой старых друзей, элитных оперативников, с целью найти пропавшее оружие массового уничтожения. Чтобы его заполучить, придётся прорываться сквозь армии безжалостных наёмников, террористов и всегда жаждущих власти политиков. Миссия приводит Фрэнка и его разношёрстную команду вышедших на пенсию убийц в Париж, Лондон и Москву. В их арсенале есть только хитрость, старая сноровка и помощь друг друга, чтобы спасти мир и при этом самим остаться в живых.



Премьера (мир): 18 июля 2013
Премьера (РФ): 1 августа 2013, «Централ Партнершип»
Качество: BDRip-AVC
Продолжительность: 01:55:48

Формат: MKV
Видео кодек: H.264
Аудио кодек: AC3
Видео: 960x400 (2,40:1), 23,976 fps, AVC, ~1422 Кbps, 0.154 bit/pixel
Аудио: 48 kHz, AC3 Dolby Digital, 3/2 (L,C,R,l,r) + LFE ch, 384.00 kbps
MediaInfo: ▼Общее
Уникальный идентификатор : 186811181470524255497329539178114749994 (0x8C8A865B861F1123BFF9A428699E962A)
Полное имя : C:UsersUserDownloadsRED.2.2013.RUS.BDRip.x264.-HELLYWOOD.mkv
Формат : Matroska
Версия формата : Version 4 / Version 2
Размер файла : 1,46 Гбайт
Продолжительность : 1 ч. 55 м.
Общий поток : 1805 Кбит/сек
Название фильма : HELLYWOOD - rip by potroks
Дата кодирования : UTC 2013-12-19 18:03:30
Программа кодирования : mkvmerge v5.9.0 (On The Loose) built on Dec 15 2012 16:39:58
Библиотека кодирования : libebml v1.3.0 + libmatroska v1.4.0

Видео
Идентификатор : 1
Формат : AVC
Формат/Информация : Advanced Video Codec
Профиль формата : [email protected]
Параметр CABAC формата : Да
Параметр ReFrames формата : 12 кадров
Идентификатор кодека : V_MPEG4/ISO/AVC
Продолжительность : 1 ч. 55 м.
Битрейт : 1422 Кбит/сек
Ширина : 960 пикселей
Высота : 400 пикселей
Соотношение сторон : 2,40:1
Режим частоты кадров : Постоянный
Частота кадров : 23,976 кадра/сек
Цветовое пространство : YUV
Субдискретизация насыщенности : 4:2:0
Битовая глубина : 8 бит
Тип развёртки : Прогрессивная
Бит/(Пиксели*Кадры) : 0.154
Размер потока : 1,12 Гбайт (77%)
Заголовок : Red 2
Библиотека кодирования : x264 core 130 r2273 b3065e6
Настройки программы : cabac=1 / ref=12 / deblock=1:-3:-2 / analyse=0x3:0x133 / me=umh / subme=11 / psy=1 / psy_rd=1.10:0.00 / mixed_ref=1 / me_range=32 / chroma_me=1 / trellis=2 / 8x8dct=1 / cqm=0 / deadzone=21,11 / fast_pskip=0 / chroma_qp_offset=-2 / threads=9 / lookahead_threads=6 / sliced_threads=0 / nr=0 / decimate=0 / interlaced=0 / bluray_compat=0 / constrained_intra=0 / bframes=13 / b_pyramid=2 / b_adapt=2 / b_bias=0 / direct=3 / weightb=1 / open_gop=0 / weightp=2 / keyint=240 / keyint_min=23 / scenecut=40 / intra_refresh=0 / rc_lookahead=60 / rc=2pass / mbtree=0 / bitrate=1422 / ratetol=1.0 / qcomp=0.70 / qpmin=0 / qpmax=69 / qpstep=4 / cplxblur=20.0 / qblur=0.5 / vbv_maxrate=20000 / vbv_bufsize=20000 / nal_hrd=none / ip_ratio=1.35 / pb_ratio=1.25 / aq=1:0.80
Язык : English
Default : Да
Forced : Нет

Аудио
Идентификатор : 2
Формат : AC-3
Формат/Информация : Audio Coding 3
Расширение режима : CM (complete main)
Параметр Endianness формата : Big
Идентификатор кодека : A_AC3
Продолжительность : 1 ч. 55 м.
Вид битрейта : Постоянный
Битрейт : 384 Кбит/сек
Каналы : 6 каналов
Расположение каналов : Front: L C R, Side: L R, LFE
Частота : 48,0 КГц
Битовая глубина : 16 бит
Метод сжатия : С потерями
Размер потока : 318 Мбайт (21%)
Заголовок : Dub |
f3bf481999313b959e6c9df29f787c1b2e2296beРЭД 2 / Red 2 (Дин Паризо, боевик, комедия, 2013) [BDRip-AVC, Профессиональный (полное дублирование), Subs] РЭД 2 / Red 2 (Дин Паризо, боевик, комедия, 2013) [BDRip-AVC, Профессиональный (полное дублирование), Subs] " />

Аплоадер: Админ, дата: 21-12-2013, 08:23, торрент скачан: 359 раз

Понравилась раздача? Посмотрите эти:
  • РЭД 2 / Red 2 (Дин Паризо, боевик, комедия, 2013) [BDRip, Профессиональный ...
  • РЭД 2 / Red 2 (Дин Паризо, боевик, комедия, 2013) [HDRip-AVC, Профессиональ ...
  • РЭД 2 / Red 2 (Дин Паризо, боевик, комедия, 2013) [BDRip-AVC, Дубляж + Субт ...
  • РЭД 2 / Red 2 (Дин Паризо, боевик, комедия, 2013) [HDRip, Профессиональный ...
  • РЭД 2 / Red 2 (Дин Паризо, боевик, комедия, 2013) [HDRip, Профессиональный ...
  • РЭД 2 / Red 2 (Дин Паризо, боевик, комедия, 2013) [BDRip-AVC, Профессиональ ...
  • Андроид / Android (App) (Бобо Боерманс, Tриллер, 2013) [BDRip-AVC, Професси ...
  • РЭД 2 / Red 2 (Дин Паризо, боевик, комедия, 2013) [HDRip, Авторский (одного ...
  • Одноклассники 2 / Grown Ups 2 (Деннис Дуган, Комедия, 2013) [BDRip-AVC, Про ...
  • Погнали! / Getaway (Кортни Соломон, боевик, криминал, 2013) [BDRip 1080p, П ...
  • Погнали! / Getaway (Кортни Соломон, боевик, криминал, 2013) [BDRip-AVC, Про ...
  • Война миров Z / World War Z [Theatrical Cut] (Марк Форстер, ужасы, фантасти ...
  • Невероятный Бёрт Уандерстоун / The Incredible Burt Wonderstone (Дон Скардин ...
  • Никто не выжил / No One Lives (Рюхэй Китамура, Триллер, ужасы, 2012) [BDRip ...
  • Летучий отряд Скотланд-Ярда / The Sweeney (Ник Лав, Боевик, драма, криминал ...
  • Великий мастер / Yi dai zong shi (Вонг Кар-Вай, боевик, драма, биография, 2 ...
  • Порочные игры / Stoker (Пак Чхан Ук, Триллер, драма, детектив, 2013) [BDRip ...
  • Фантомы / Shutter (Масаюки Очиай, ужасы, триллер, детектив, 2008) [BDRip-AV ...
  • Поймай толстуху, если сможешь [Театральная версия] / Identity Thief [Theatr ...
  • Даю год / I Give It a Year (Дэн Мазер, мелодрама, комедия, 2012) [BDRip-AVC ...
  • Паркер / Parker (Тейлор Хэкфорд, Боевик, триллер, криминал, 2013) [BDRip-AV ...
  • Возвращение героя / The Last Stand (Ким Чжи Ун, боевик, триллер, криминал, ...
  • Линкольн / Lincoln (Стивен Спилберг, драма, военный, биография, история, 20 ...
  • Суррогат / The Sessions (Бен Луин, Драма, 2012) [BDRip-AVC, Профессиональны ...
  • Петля времени / Looper (Райан Джонсон, Фантастика, боевик, триллер, кримина ...
  • Информация
    Посетители, находящиеся в группе Гости, не могут оставлять комментарии к данной публикации.