вход на сайт

Имя пользователя :
Пароль :

Восстановление пароля Регистрация
Два ствола / 2 Guns (Бальтасар Кормакур, боевик, триллер, драма, комедия, криминал, 2013) [BDRip-AVC, Дублированный + Оригинал (английский) + Субтитры]
Рейтинг:
(голосов: 1)



[img]{THEME}/images/logopost.png[/img]



Два ствола / 2 Guns
«Карты есть, деньги будут»

Год выпуска: 2013
Страна: США
Производство:
Жанр: боевик, триллер, драма, комедия, криминал

Режиссёр: Бальтасар Кормакур
В ролях: Дензел Вашингтон, Марк Уолберг, Пола Пэттон, Билл Пэкстон, Фред Уорд, Джеймс Марсден, Эдвард Джеймс Олмос, Роберт Джон Бёрк, Грег Спролс, Патрик Фишлер

Перевод: Дублированный + Оригинал (английский)
Субтитры: английские (Full, SDH, SDH-Colored)

Описание: Это история двух грабителей, которые на самом деле не те, кем кажутся. Один из них — агент из управления по борьбе с наркотиками, а другой — тайный агент разведки ВМС. Сами того не желая, они занимаются расследованием дел друг друга, а также воруют деньги у мафии. Через некоторое время героям придется украсть 50 миллионов долларов у ЦРУ.


Премьера (мир): 30 июля 2013
Премьера (РФ): 5 сентября 2013

Качество: BDRip-AVC
Продолжительность: 01:49:15

Формат: MKV
Видео кодек: H.264
Аудио кодек: AC3
Видео: 1024x426 (2.40:1), 23.976 fps, [email protected] ~2 090 kbps avg, 0.200 bit/pixel
Аудио #1: 48 kHz, Audio Coding 3, 3/2 (L, R) ch, 320 kbps |Russian|
Аудио #2: 48 kHz, Audio Coding 3, 3/2 (L,C,R,l,r) + LFE ch, 384 kbps |English|
MediaInfo ▼Format : Matroska
Format version : Version 2
File size : 2.13 GiB
Duration : 1h 49mn
Overall bit rate : 2 796 Kbps
Encoded date : UTC 2013-11-09 10:36:36
Writing application : mkvmerge v4.9.1 (Ich will) сборка от Jul 11 2011 23:53:15
Writing library : libebml v1.2.1 + libmatroska v1.1.1

Video
ID : 1
Format : AVC
Format/Info : Advanced Video Codec
Format profile : [email protected]
Format settings, CABAC : Yes
Format settings, ReFrames : 12 frames
Codec ID : V_MPEG4/ISO/AVC
Bit rate : 2 090 Kbps
Width : 1 024 pixels
Height : 426 pixels
Display aspect ratio : 2.40:1
Frame rate mode : Variable
Original frame rate : 23.976 fps
Color space : YUV
Chroma subsampling : 4:2:0
Bit depth : 8 bits
Scan type : Progressive
Bits/(Pixel*Frame) : 0.200
Writing library : x264 core 133 r2334 a3ac64b
Encoding settings : cabac=1 / ref=12 / deblock=1:-3:-3 / analyse=0x3:0x113 / me=umh / subme=11 / psy=1 / psy_rd=1.00:0.25 / mixed_ref=0 / me_range=32 / chroma_me=1 / trellis=2 / 8x8dct=1 / cqm=0 / deadzone=21,11 / fast_pskip=1 / chroma_qp_offset=-4 / threads=12 / lookahead_threads=2 / sliced_threads=0 / nr=0 / decimate=0 / interlaced=0 / bluray_compat=0 / constrained_intra=0 / bframes=8 / b_pyramid=2 / b_adapt=2 / b_bias=0 / direct=3 / weightb=1 / open_gop=0 / weightp=2 / keyint=240 / keyint_min=23 / scenecut=40 / intra_refresh=0 / rc_lookahead=40 / rc=2pass / mbtree=1 / bitrate=2090 / ratetol=1.0 / qcomp=0.70 / qpmin=0 / qpmax=69 / qpstep=4 / cplxblur=20.0 / qblur=0.5 / vbv_maxrate=62500 / vbv_bufsize=78125 / nal_hrd=none / ip_ratio=1.40 / aq=1:1.00
Language : English
Default : Yes
Forced : No

Audio #1
ID : 2
Format : AC-3
Format/Info : Audio Coding 3
Mode extension : CM (complete main)
Format settings, Endianness : Big
Codec ID : A_AC3
Duration : 1h 49mn
Bit rate mode : Constant
Bit rate : 320 Kbps
Channel count : 2 channels
Channel positions : Front: L R
Sampling rate : 48.0 KHz
Bit depth : 16 bits
Compression mode : Lossy
Stream size : 250 MiB (11%)
Language : Russian
Default : Yes
Forced : No

Audio #2
ID : 3
Format : AC-3
Format/Info : Audio Coding 3
Mode extension : CM (complete main)
Format settings, Endianness : Big
Codec ID : A_AC3
Duration : 1h 49mn
Bit rate mode : Constant
Bit rate : 384 Kbps
Channel count : 6 channels
Channel positions : Front: L C R, Side: L R, LFE
Sampling rate : 48.0 KHz
Bit depth : 16 bits
Compression mode : Lossy
Stream size : 300 MiB (14%)
Language : English
Default : No
Forced : No

Text #1
ID : 4
Format : UTF-8
Codec ID : S_TEXT/UTF8
Codec ID/Info : UTF-8 Plain Text
Title : English (Full)
Language : English
Default : No
Forced : No

Text #2
ID : 5
Format : UTF-8
Codec ID : S_TEXT/UTF8
Codec ID/Info : UT
0ebd24bf0fe79435cd1061ab92aa439b51410173Два ствола / 2 Guns (Бальтасар Кормакур, боевик, триллер, драма, комедия, криминал, 2013) [BDRip-AVC, Дублированный + Оригинал (английский) + Субтитры] Два ствола / 2 Guns (Бальтасар Кормакур, боевик, триллер, драма, комедия, криминал, 2013) [BDRip-AVC, Дублированный + Оригинал (английский) + Субтитры] " />

Аплоадер: Админ, дата: 19-12-2013, 15:14, торрент скачан: 359 раз

Понравилась раздача? Посмотрите эти:
  • Два ствола / 2 Guns (Бальтасар Кормакур, боевик, триллер, драма, комедия, к ...
  • Два ствола / 2 Guns (Бальтасар Кормакур, боевик, триллер, драма, комедия, к ...
  • Два ствола / 2 Guns (Бальтасар Кормакур, боевик, триллер, драма, комедия, к ...
  • Два ствола / 2 Guns (Бальтасар Кормакур, боевик, триллер, драма, 2013) [Blu ...
  • Два ствола / 2 Guns (Бальтасар Кормакур, боевик, триллер, драма, комедия, к ...
  • Два ствола / 2 Guns (Бальтасар Кормакур, боевик, триллер, драма, 2013) [BDR ...
  • Два ствола / 2 Guns (Бальтасар Кормакур, боевик, триллер, драма, комедия, к ...
  • Два ствола / 2 Guns (Бальтасар Кормакур, Боевик, триллер, драма, комедия, к ...
  • Два ствола / 2 Guns (Бальтасар Кормакур, боевик, триллер, драма, комедия, к ...
  • Два ствола / 2 Guns (Бальтасар Кормакур, Боевик, триллер, драма, комедия, к ...
  • Армагеддец / The Worlds End (Эдгар Райт, фантастика, боевик, комедия, 2013) ...
  • Сезон убийц / Killing Season (Марк Стивен Джонсон, триллер, драма, боевик, ...
  • Грязь / Filth (Джон С. Бейрд, криминал, драма, комедия, 2013) [BDRip-AVC, ...
  • Два ствола / 2 Guns (Бальтасар Кормакур, боевик, триллер, драма, комедия, к ...
  • Два ствола / 2 Guns (Бальтасар Кормакур, боевик, триллер, драма, комедия, к ...
  • Пастырь / Priest (Скотт Чарльз Стюарт, ужасы, фантастика, боевик, триллер, ...
  • Хроника / Chronicle (Джошуа Транк, фантастика, боевик, триллер, драма, 2012 ...
  • Погоня / Abduction (Джон Синглтон, боевик, триллер, драма, детектив, 2011) ...
  • Соучастник / Collateral (Майкл Манн, Триллер, драма, криминал, 2004) [BDRip ...
  • [Трейлер] Два ствола / 2 Guns (Бальтасар Кормакур, боевик, триллер, драма, ...
  • Персонаж / Stranger Than Fiction (Марк Форстер, Комедия, драма, фантастика, ...
  • Контрабанда / Contraband (Бальтасар Кормакур, боевик, триллер, драма, крими ...
  • Бедная богатая девочка / Young Adult (Джейсон Райтман, драма, комедия, 2011 ...
  • Профессионал / Killer Elite (Гэри МакКендри, Боевик, Триллер, Криминал, 201 ...
  • Патруль / End of Watch (Дэвид Эйр, Триллер, драма, криминал, 2012) [BDRip 7 ...
  • Информация
    Посетители, находящиеся в группе Гости, не могут оставлять комментарии к данной публикации.