вход на сайт

Имя пользователя :
Пароль :

Восстановление пароля Регистрация
Отряд «Дельта» / The Delta Force (Менахем Голан, Боевик, 1986) [BDRip, Профессиональный (многоголосый закадровый) + Профессиональный (многоголосый закадровый) |R5| + Оригинальная звуковая дорожка]
Рейтинг:
(голосов: 1)



[img]{THEME}/images/logopost.png[/img]



♠Отряд «Дельта» / The Delta Force ♠
♠Год выпуска: 1986
♠Страна: США, Израиль
♠Производство: Metro Goldwyn Mayer
♠Жанр: Боевик, триллер, драма, приключения, военный
♠Режиссёр: Менахем Голан
♠В ролях: Чак Норрис, Ли Марвин, Мартин Болсам, Джои Бишоп, Роберт Форстер, Лэйни Казан, Джордж Кеннеди, Ханна Шигулла, Сьюзен Страсберг, Бо Свенсон и другие.
♠Перевод: Профессиональный (многоголосый закадровый) + Профессиональный (многоголосый закадровый) |R5| + Оригинальная звуковая дорожка
♠Субтитры: Английские (внешние, srt*)

♠Описание: Когда опасные террористы захватывают американских туристов и переправляют их в Бейрут, президент направляет отряд «Дельта» — бригаду первоклассных бойцов под командованием полковника Ника Александера и майора Скотта Маккоя, чтобы освободить их.
Вскоре после переброски на Средний Восток элитный спасательный отряд получает сведения, что женщин и детей отпустили, но мужчин банда фанатичных преступников по — прежнему удерживает в здании школы, расположенном на берегу моря. Сметая все на своем пути, сквозь огонь и взрывы отряд «Дельта» прорывается в лагерь террористов и, не оставляя пленных, освобождает заложников. Однако на этом миссия не заканчивается. Бандиты успели перевезти нескольких заложников в Тегеран, и теперь в битве за их спасение время работает против Александера и Маккоя.
Они обязаны успеть — ведь на кону жизнь людей и честь родины.

♠Рейтинг:♠Доп. информация: sample отсуствует
♠Качество: BDRip
♠Продолжительность: 02:09:00 час.

♠Формат: AVI
♠Видео кодек: XviD
♠Аудио кодек: AC3
♠Видео: MPEG-4, 704x400,4:2:0, 1820 kbps, 23,976 fps, 0.270 bpp
♠Аудио#1: 48 kHz, AC3, 2/0 (L,R) ch, ~192.00 kbps avg (RUS, MVO)
♠Аудио#2: 48 kHz, AC3, 2/0 (L,R) ch, ~192.00 kbps avg (RUS, MVO) R5
♠Аудио#3: 48 kHz, AC3, 2/0 (L,R) ch, ~192.00 kbps avg (ENG)

♠Премьера: 14 февраля 1986

MediaInfo ▼
Text
Общее
Формат : AVI
Формат/Информация : Audio Video Interleave
Размер файла : 2,18 Гбайт
Продолжительность : 2 ч. 9 м.
Общий поток : 2420 Кбит/сек
Название фильма : Отряд «Дельта» / The Delta Force (1986) BDRip
Режиссёр : MOSFET
Жанр : боевик, триллер, драма
Программа кодирования : VirtualDubMod 1.5.10.2 (build 2542/release)
Правообладатель : http://hqclub.net/
Примечание : 03.09.12

Видео
Идентификатор : 0
Формат : MPEG-4 Visual
Профиль формата : Advanced [email protected]
Параметр BVOP формата : 1
Параметр QPel формата : Нет
Параметр GMC формата : Без точки перехода
Параметр матрицы формата : Выборочная
Идентификатор кодека : XVID
Идентификатор кодека/Подсказка : XviD
Продолжительность : 2 ч. 9 м.
Битрейт : 1820 Кбит/сек
Ширина : 704 пикселя
Высота : 400 пикселей
Соотношение сторон : 16:9
Частота кадров : 23,976 кадра/сек
Цветовое пространство : YUV
Субдискретизация насыщенности : 4:2:0
Битовая глубина : 8 бит
Тип развёртки : Прогрессивная
Метод сжатия : С потерями
Бит/(Пиксели*Кадры) : 0.270
Размер потока : 1,64 Гбайт (75%)
Библиотека кодирования : XviD 65

Аудио #1
Идентификатор : 1
Формат : AC-3
Формат/Информация : Audio Coding 3
Расширение режима : CM (complete main)
Параметр Endianness формата : Big
Идентификатор кодека : 2000
Продолжительность : 2 ч. 9 м.
Вид битрейта : Постоянный
Битрейт : 192 Кбит/сек
Каналы : 2 канала
Расположение каналов : Front: L R
Частота : 48,0 КГц
Битовая глубина : 16 бит
Метод сжатия : С потерями
Размер потока : 177 Мбайт (8%)
Выравнивание : Разделение по промежуткам
Продолжительность промежутка : 42 мс. (1,00 видеокадр)
Время предзагрузки промежутка : 500 мс.

Аудио #2
Идентификатор : 2
Формат : AC-3
Формат/Информация : Audio Coding 3
Расширение режима : CM (complete main)
Параметр Endianness формата : Big
Идентификатор кодека : 2000
Продолжительность : 2 ч. 9 м.
Вид битрейта : Постоянный
Битрейт : 192 Кбит/сек
Каналы : 2 канала
Расположение каналов : Front: L R
Частота : 48,0 КГц
Битовая глубина : 16 бит
Метод сжатия : С потерями
Размер п
f324599b3670fb2d4d4c5c66f9fddf07486ce4dcОтряд «Дельта» / The Delta Force (Менахем Голан, Боевик, 1986) [BDRip, Профессиональный (многоголосый закадровый) + Профессиональный (многоголосый закадровый) |R5| + Оригинальная звуковая дорожка] Отряд «Дельта» / The Delta Force (Менахем Голан, Боевик, 1986) [BDRip, Профессиональный (многоголосый закадровый) + Профессиональный (многоголосый закадровый) |R5| + Оригинальная звуковая дорожка] " />

Аплоадер: Админ, дата: 3-12-2012, 17:19, торрент скачан: 359 раз

Понравилась раздача? Посмотрите эти:
  • Бойфренд из будущего / About Time (Ричард Кёртис, Фантастика, драма, комеди ...
  • Одноклассники 2 / Grown Ups 2 (Деннис Дуган, Комедия, 2013) [BDRip, Професс ...
  • Кровью и потом: Анаболики / Pain & Gain (Майкл Бэй, криминал, комедия, трил ...
  • Миллион для чайников / The Brass Teapot (Рамаа Мосли, Фэнтези, триллер, ком ...
  • Миллион для чайников / The Brass Teapot (Рамаа Мосли, Фэнтези, триллер, ком ...
  • Астрал на улице Арлетт / 388 Arletta Avenue (Рэндолл Коул, Триллер, 2011) [ ...
  • Чужеродное вторжение / Alien Raiders (Бен Рок, Фантастика, триллер, ужасы, ...
  • Отряд "Дельта" 2 / Delta Force 2: The Colombian Connection ( Аарон Норрис, ...
  • Глушь / Resurrection County (Матт Зеттел, Ужасы,триллер, 2008) [DVDRip, Про ...
  • Двенадцать бедствий на Рождество / The 12 Disasters of Christmas (Стивен Р. ...
  • Жил-был тигр / Ek Tha Tiger (Кабир Кхан, боевик, триллер , 2012) [ HDRip, ...
  • Легенда о МорДу / The Legend of MorDu (Брайан Ларсен, Короткометражный, ска ...
  • Отбой / Taps (Харольд Беккер, Драма, 1981) [DVDRip, Профессиональный (много ...
  • Путешествие на дно моря / Voyage to the Bottom of the Sea (Ирвин Аллен / I ...
  • Кажется, я люблю свою жену / I Think I Love My Wife (Крис Рок, Драма, мелод ...
  • К-9: Рождественские приключения / K9 Adventures: A Christmas Tale (Бен Гурл ...
  • Покорить высоту / Take It to the Limit (Сэм Кит / Sam Kieth, семейный, 2000 ...
  • Боец из трущоб / Gutter King (Кейт Алан Моррис / Keith Alan Morris, боевик, ...
  • Приключения Тинтина: Тайна Единорога / The Adventures of Tintin (Стивен Спи ...
  • Нет мужчин - нет проблем / Without Men (Габриела Тальявини, Комедия, 2011) ...
  • Гениальный папа / Father of Invention (Трент Купер, Драма, комедия, 2010) [ ...
  • Жизнь за гранью / After.Life (Агнешка Войтович-Восло, Ужасы, триллер, драм ...
  • Застенок / The Jailhouse (Билли Льюис, Ужасы, Триллер, Детектив, 2009) [DV ...
  • Глаз шторма / The Eye of the Storm (Фред Скеписи, Драма, 2011) [HDRip, Проф ...
  • Сдохни, Джон Такер / John Tucker Must Die (Бетти Томас, мелодрама, комедия, ...
  • Информация
    Посетители, находящиеся в группе Гости, не могут оставлять комментарии к данной публикации.