вход на сайт

Имя пользователя :
Пароль :

Восстановление пароля Регистрация
Дикое поле (Николай Гусаров, боевик, 1991) [DVDRip, Не требуется]
Рейтинг:
(голосов: 1)



[img]{THEME}/images/logopost.png[/img]



Дикое поле

Год выпуска: 1991
Страна: СССР
Производство: Евразия
Жанр: боевик

Режиссёр: Николай Гусаров
В ролях: Борис Рубашкин, Николай Гусаров, Владимир Антоник, Матлюба Алимова, Олег Корчиков, Лесь Сердюк, Николай Шевкуненко, Вячеслав Мелехов, Сергей Рыкусов

Перевод: Не требуется
Субтитры: Отсутствуют

Описание:
Как-то в эти края к становищу атамана Сидора пришли трое. Один из них недавно бежал из турецкого плена, где от умирающего на его руках сотника, узнал о спрятанном в этих местах сундуке с рязанской казной. Казаки, посовещавшись, решают отправиться на ее поиски, но казну уже ищут и турки, которые когда-то ее здесь и спрятали.


Дополнительно:
MediaInfo ▼Text
Общее
Полное имя :K:2. РАЗДАЧАДикое полеDikoye pole.1991.avi
Формат :AVI
Размер :1.06 GiB
Продолжительность :01:45:54.760
Общий поток :1 432 Kbps
Программа кодирования :VirtualDubMod 1.5.10.2 (build 2540/release)

Видео
Идентификатор :0
Формат :MPEG-4 Visual
Профиль формата :Advanced [email protected]
Параметр BVOP формата :2
Параметр Qpel формата :No
Параметр GMC формата :0
Параметр Matrix формата :Default (H.263)
Идентификатор кодека :XVID
Продолжительность :1h 45mn 54s 760ms
Битрейт :1 294 Kbps
Ширина :688 pixels
Высота :512 pixels
Соотношение сторон :1.344
Частота кадров :25.000 fps
Глубина цвета :8 bits
Подвыборка цветности :4:2:0
Цветовое пространство :YUV
Тип развертки :Progressive
Бит/(Пиксели*Кадры) :0.147
Размер потока :980 MiB (90%)
Библиотека кодирования :XviD0050

Аудио #1
Идентификатор :1
Формат :MPEG Audio
Идентификатор кодека :55
Продолжительность :01:45:54.720
Вид битрейта :Constant
Битрейт :128 Kbps
Канал(ы) :2 channels
Частота :48.0 KHz
Метод сжатия :Lossy
Размер потока :97.0 MiB (9%)Тех. данные:
Качество:DVDRip
Продолжительность:01:45:50 час

Формат: AVI
Видео кодек: XviD
Аудио кодек: MPA1L3
Видео: 688 x 512 (4:3), 25.000 fps, 1 294 Kbps, 0.147 bit/pixel
b6d7fe151e5841b72fb9d91fdc80153e5181b755Дикое поле (Николай Гусаров, боевик, 1991) [DVDRip, Не требуется] Дикое поле (Николай Гусаров, боевик, 1991) [DVDRip, Не требуется] " />

Аплоадер: Админ, дата: 1-12-2012, 19:16, торрент скачан: 359 раз

Понравилась раздача? Посмотрите эти:
  • Подранки (Николай Губенко, драма, 1976) [DVDRip, Не требуется]
  • Божья тварь (Галина Данелия-Юркова, комедия, 1991) [DVDRip, Не требуется]
  • Аленка (Борис Барнет, комедия, 1961) [DVDRip, Не требуется]
  • Акваланги на дне (Евгений Шерстобитов, боевик, приключения, семейный, 1965) ...
  • На берегу большой реки (Николай Гусаров, драма, мелодрама, 1980) [DVDRip, Н ...
  • Старшина (Николай Кошелев, драма, 1979) [DVDRip, Не требуется]
  • Путевка в Жизнь (Николай Экк, драма, 1931) [DVDRip, Не требуется]
  • Призрак (Никита Орлов, боевик, триллер, 1991) [TVRip, Не требуется]
  • Завтрак на траве (Николай Александрович, детский, комедия, 1979) [DVDRip, Н ...
  • Ой, вы, гуси... (Лидия Боброва, Драма, 1991) [DVDRip, Не требуется]
  • Маленький гигант большого секса (Николай Досталь, Комедия, 1992) [DVDRip, Н ...
  • Левша (Сергей Овчаров, драма, комедия, 1986) [DVDRip, Не требуется]
  • Капитанская дочка (Владимир Каплуновский, драма, 1958) [DVDRip, Не требуетс ...
  • Пустыня (Михаил Кац, драма, 1991) [TVRip, Не требуется]
  • Покушение на ГОЭЛРО (3 части из 3) (Николай Гусаров, приключения, 1986) [DV ...
  • Солёный пёс (Николай Кошелев, драма, комедия, 1973) [DVDRip, Не требуется]
  • Печники (Виктор Храмов, драма, 1982) [DVDRip, Не требуется]
  • Тайна золотой горы (Николай Гусаров, приключения, 1985) [DVDRip, Не требует ...
  • Царь Иван Грозный (2 части из 2) (Геннадий Васильев, Драма, история, 1991) ...
  • Цареубийца (Карен Шахназаров, Драма, история, 1991) [DVDRip, Не требуется]
  • Тайна золотой горы (Николай Гусаров, приключения, 1985) [DVDRip, Не требует ...
  • Славный малый (Борис Барнет, военный, 1943) [DVDRip, Не требуется]
  • Прощайте, фараоны! (Давид Черкасский, Вячеслав Винник, комедия, 1974) [DVDR ...
  • Кутузов (Владимир Петров, драма, 1943) [DVDRip, Не требуется]
  • Гарем Степана Гуслякова (Алишер Хамдамов, драма, 1989) [TVRip, Не требуетс ...
  • Информация
    Посетители, находящиеся в группе Гости, не могут оставлять комментарии к данной публикации.